<?xml version="1.0" standalone="no"?>
<!DOCTYPE svg PUBLIC "-//W3C//DTD SVG 1.1//EN" "http://www.w3.org/Graphics/SVG/1.1/DTD/svg11.dtd" >
<svg xmlns="http://www.w3.org/2000/svg" xmlns:xlink="http://www.w3.org/1999/xlink" version="1.1">
<metadata>
Created by FontForge 20200427 at Wed Apr 21 01:34:45 1999
 By www
Copyright \(C\) 1999, Nando\325s; designed by Cross Colours
</metadata>
<defs>
<font id="Nandos-Regular" horiz-adv-x="601" >
  <font-face 
    font-family="Nandos-Regular"
    font-weight="5"
    font-stretch="normal"
    units-per-em="1000"
    panose-1="0 0 0 0 0 0 0 0 0 0"
    ascent="800"
    descent="-200"
    x-height="534"
    cap-height="741"
    bbox="-93 -359 1494 1097"
    underline-thickness="11"
    underline-position="-27"
    unicode-range="U+0020-F002"
  />
<missing-glyph horiz-adv-x="778" 
d="M48 0v778h682v-778h-682zM682 48v682h-586v-682h586z" />
    <glyph glyph-name=".notdef" horiz-adv-x="778" 
d="M48 0v778h682v-778h-682zM682 48v682h-586v-682h586z" />
    <glyph glyph-name="glyph1" horiz-adv-x="0" 
 />
    <glyph glyph-name="glyph2" horiz-adv-x="294" 
 />
    <glyph glyph-name="space" unicode=" " horiz-adv-x="294" 
 />
    <glyph glyph-name="exclam" unicode="!" horiz-adv-x="283" 
d="M276 421l-5 -2l2 -4q-6 -8 -9.5 -13t-3.5 -12q0 -6 -2 -8l6 -6l-5 -38q-4 -1 -4.5 -7t-6 -10t-10.5 -8.5t-4 -12.5l-4 -7l-9 -5q-3 -17 -5 -33q-3 -2 -3 -11q0 -5 -4 -8q-5 0 -11.5 -2t-9.5 -3q-9 8 -10.5 18t-1.5 28l-5 11v5q1 4 -8.5 30.5t-13.5 33.5q-3 8 -5 16
q-10 13 -14 53.5t-4 76.5l2 29q3 4 3 12t1 10v7q0 11 0.5 22.5t3.5 20.5q-1 5 1 16.5t2 13.5l5 12q1 9 5 22.5t11 32.5q-1 5 1 11t2 7l6 13q2 2 2 4.5v5.5l2 4l4 15q4 2 4.5 8t5.5 6q10 0 22 -4l6 -8v-4q3 -11 5 -17t8.5 -19t10.5 -15q1 -5 6.5 -11.5t4.5 -11.5q3 -3 5 -8
t3 -7q-1 -6 1.5 -14.5t2.5 -10.5q6 -5 6 -16l-2 -7q0 -5 5 -14t6 -13v-13q0 -3 2 -9l-5 -21q11 -13 11 -28q0 -8 -3 -11v-11q0 -15 -12 -20l2 -10q14 -16 16 -20t0 -13q2 -5 -4 -10.5t-8 -7.5zM263 51l-11 -24l-1 -14l-5 -3l-3 -9l-13 -6.5t-13 -3.5q-10 0 -27.5 3.5
t-21.5 3.5q-13 5 -26 20t-13 28v25q0 6 3 15t6 15t6.5 13.5t9.5 11.5q9 0 17 1t12 6q13 -2 19 -2q5 0 8 3q21 -2 27 -9q1 -6 10 -10.5t12 -12t13 -15.5q-5 -10 0 -12q-5 -12 -9 -24z" />
    <glyph glyph-name="quotedbl" unicode="&#x22;" horiz-adv-x="659" 
d="M698 492l-6 -1l-3 1l-6 -6q4 -4 4 -14q-3 -21 -3 -26l-2 -5q2 -2 3 -9.5t2 -10.5q-7 -13 -15 -33.5t-10.5 -26.5t-13.5 -16t-13 -14l-18 -14q-1 -7 -16.5 -13t-19.5 -7l-1 -4q1 -3 5.5 -15t5.5 -20q-3 -3 -4 -11t-5 -10q-13 -20 -25 -34t-29 -29l-6 1l-6 -2l-4 3
q-1 -2 -8 0l-8 -8q-8 -7 -17 -9t-15 -8l-12 -1l-8 -5l-12 -2q-3 -3 -10 -3t-9 -1l-6 1q-2 -2 0 -9l-1 -3l-2 -8l-5 -4v-6l-15 -17q-9 -2 -11 -8.5t-6 -7.5h-4l-10 -5l-4 2q-7 -5 -9 -8l-5 1q-5 -2 -17 -2q-9 0 -13 1q-7 -7 -16 -15.5t-52 -25.5t-59 -17l-12 -5h-29l-16 4
l-9 -5l-9 2l-5 -2h-4q-7 -1 -17.5 -1.5t-15.5 -0.5q-11 0 -20 9l-10 6l-5 1l-8 5l-2 6l1 6l-8 7l-1 6q0 21 40 78t42 61q2 1 7.5 21t16.5 31q4 9 17 25t22 20l3 13v5q1 8 1.5 14.5t0.5 10.5q5 15 10 32.5t5 18.5q0 29 21.5 54.5t55.5 51.5q-4 13 -4 30q0 10 1.5 19t5.5 28
q36 48 60.5 65t53.5 23l7 6q7 2 12 3.5t9 1.5q0 5 -10 5l-2 2l3 7l10 3l5 -2h14q7 -4 19 -4l7 2l5 -2q11 -2 45.5 -11.5t39.5 -12.5q3 0 5.5 -3.5t3.5 -3.5l4 2q11 -2 19 2q5 6 12.5 28t11.5 27l3 7l-1 12q7 0 9 6h6l10 -7.5t17 -10.5q1 -2 11 -7.5t14 -8.5q2 -6 11.5 -14.5
t9.5 -17.5l-15 -35q-6 -10 -11 -19l-16 -24l4 -7q3 -6 8 -13t11.5 -17t10.5 -18l15 -13l17 -11zM632 680l-17 8q-1 -8 -4 -27t-3 -23q-3 -4 -8.5 -10.5t-9.5 -9.5q-1 -4 -3.5 -8t-6.5 -8l-10 -3l-1 -4l-14 -1l-6 1l-69 22l-5 -1q-2 1 -11 2l12 -9q1 -3 6 -8.5t5 -8.5l-3 -9
l1 -6q23 0 34 -6l42 -20l18 -15l3 -6h22l13 -3l3 7l-14 35q-2 9 -8 15l34 92v4zM597 501q-15 -5 -30 -9q-5 -6 -13 -11l-10 1l-8 12q-3 8 -6 17q-7 20 -11 22q-8 1 -17 6q-4 -2 -11.5 0t-10.5 2q-16 0 -18 -5l-13 -3l-8 2l-10 9q4 15 9 31l-2 16l-5 10q-10 10 -16 10
q-5 0 -11 -4l-7.5 -5t-6 -5.5t-4.5 -8.5l-7 -6q-3 -8 -8 -8q-8 -7 -20.5 -29.5t-14.5 -31.5q-9 -9 -14 -23q1 -6 -2.5 -15t-4.5 -13l-4 -6q1 -14 2 -27l-7 -6l-16 -29q-8 -10 -10 -16l-9 -6q-4 8 -5 17t-1 21q6 9 -1 12q-11 -7 -13 -12l-19 -36l1 -4q-3 -8 -5 -16
q3 -13 -3 -15q-5 -8 1 -11l-1 -11q-2 -2 -4 -10l1 -5l-5 -5q-3 -12 -6.5 -23.5t-8.5 -22.5l-4 -1l1 -3l-10 -19q-4 -2 -10 -10t-8 -10l-4 2l1 10l-10 5q-5 -9 -10 -18.5t-7 -18.5l-6 -7l-1 -13q2 -2 2 -9v-10l-5 -10q2 -6 -14.5 -20.5t-17.5 -15.5l-4 -2q0 -4 -3.5 -7.5
t-9.5 -5.5q-5 1 -17.5 -10.5t-12.5 -16.5l-6 -12l11 -9l13 -5q47 13 61.5 15.5t34.5 2.5h5q21 -3 65 26.5t65 32.5q4 -2 22.5 7.5t37.5 22.5h-12q-11 0 -20 3l-1 9q5 3 24 7.5t25 7t15 8.5t17 12q16 9 48 43t37 37l6 9l-5 1l-21 -4l-2 -6l-9 2q-2 -4 -8 -9.5t-11 -10.5l-8 1
q1 2 5.5 16.5t10.5 18.5l55 36q15 4 21 9t21 24q1 3 13.5 17.5t18.5 25.5t13.5 37.5t14.5 56.5z" />
    <glyph glyph-name="numbersign" unicode="#" horiz-adv-x="671" 
d="M673 469q-8 2 -10 2q-4 0 -13 -3.5t-15 -2.5q-10 -8 -27 -11q-1 -5 -7.5 -7.5t-7.5 -4.5q-6 0 -9 -3h-18l-4 -2l-7 4q-2 -3 -3.5 -4.5t-3.5 0.5q-3 2 -4 1q0 -5 -2 -11t-4 -15q2 -5 3 -17.5t3 -19.5l-1 -27q-6 -1 -6 -3q3 -7 4 -10q8 -2 29 -2t33 -2q7 2 9 0q12 -1 25 1
t25 7q6 -6 4 -12q-4 -9 -15 -14l-11 -7l-3 2q0 -2 -6 -8q-4 -1 -12.5 -4t-13.5 -4t-10 -3t-11 -2l-8 2q-1 -3 -7 -3t-7 -4l-12 -12q-3 -1 -6.5 -1.5t-6.5 -0.5q-6 0 -9 -3h-6q0 -4 -5 -7t-3 -8q-6 -6 -6 -14q-6 -12 -10 -18q0 -6 -1 -9.5t-5 -2.5q-3 -6 -1 -16
q-6 -11 -3 -14l-6 -17q-6 -9 -7.5 -17t-2.5 -17q-2 -1 -2 -5t-4 -11t-9 -6l-5 7v57q2 3 1.5 9t-0.5 12q-1 13 -1.5 28.5t-0.5 24.5v18q-1 5 -9 2q-3 -5 -13 -5q-13 0 -16 -4q-7 2 -16.5 0.5t-14.5 -1.5l-24 -4l-6 -18q1 -4 -3 -8.5t-2.5 -7t-1 -4t-3.5 -2.5q0 -2 -4 -7.5
t-1 -9.5q0 -22 -14 -33q-1 -3 -3.5 -9.5t-2.5 -10.5q-6 -13 -8.5 -21t-1.5 -19q-3 -5 -5 -10q-6 0 -11 8l-6 40q0 9 -3 25t-3 24l-5 22q-4 10 -8.5 30t-6.5 26q-3 1 -11 1t-11 1l-18 4h-15q-7 3 -11.5 5t-10.5 1q-1 2 -5 3t-5 3q-6 -3 -12 -3q-12 0 -18 5.5t-6 11.5t-2 7v20
q0 11 8.5 13.5t9.5 3.5q7 -1 20 1.5t17 2.5q9 3 18 3q17 -1 27 -1q8 0 12 1q-1 13 0 20q0 7 -1 14l-2 14q0 6 1 9q-1 5 -1 15q0 7 -2 10h-18t-12 -1t-11.5 -2t-13.5 -1h-11q-10 3 -15 4t-16 1q-11 5 -21 11q-13 -2 -17 7q2 4 -3.5 12.5t0.5 13.5q-2 11 6 16q10 -2 9 7
q2 0 8 -2q7 0 17.5 4.5t17.5 2.5q2 3 7 3t7 2q4 0 13 2t15 2q2 3 12 5t16.5 4.5t16.5 6.5l16 78q3 8 5.5 18t5.5 20q2 2 4.5 13.5t11.5 11.5q4 -2 9.5 -8t9.5 -12q-1 0 -1.5 -2.5t-1.5 -4.5q5 -3 8.5 -7.5t10.5 -14.5q0 -5 6.5 -11t6.5 -11q2 -3 8.5 -11.5t6.5 -14.5l2 -2
l-1 -29q1 -4 7 -3t8 -2q6 1 16.5 -1.5t13.5 -2.5l14 -8q9 -5 13 -5q2 13 4 27l8 55q6 28 12 57q6 1 13 2l8 -14l6 -4q-2 -8 1 -14q13 -9 14 -17l13 -12l10 -18q4 -15 9 -30q2 -3 3 -10t3 -10q5 -2 12 -2h15q20 -4 40 -7q2 -1 7 -2t6 -3l20 -6q2 -2 7.5 -3t7.5 -2q7 -4 12 -4
q7 -6 15 -12l7 -9q-6 -9 -7 -9zM427 428q-1 4 -7.5 4h-9.5q-3 -4 -9 -1.5t-8 2.5l-11 -1q-2 1 -3 2q-3 -5 -4 -5q-1 -6 2 -13l2 -20l1 -32q-3 -9 -2 -11q3 -3 11 -2t12 -2q12 3 15 -2q9 -1 18 -1q0 14 -3.5 42.5t-3.5 39.5z" />
    <glyph glyph-name="dollar" unicode="$" horiz-adv-x="565" 
d="M562 176q-5 -9 -10 -17l-7 -10q-4 0 -11.5 -7.5t-12.5 -6.5l-7 -5l-1 -3l-6 2q-18 -7 -26 -10q-5 1 -16.5 -4.5t-20.5 -5.5l-14 -2q-5 2 -13.5 0t-12 -4t-5 -11t-4 -13t-4.5 -8t-1 -8q-9 -14 -9 -25v-22l2 -9l-1 -17q-7 -9 -13 -19h-9q-5 -10 -12 -9q-2 -4 -10.5 -9.5
t-9.5 -11.5q-5 -8 -9 -26q-3 -4 2 -17l-5 -8l-10 6q-9 22 -13 45t-6.5 41.5t-5 39t-4.5 23.5q2 4 1 11t-1 13q2 8 3 16t3 10l-1 8l-14 -2q-23 0 -68 25.5t-55 38.5t-17 23.5t-9 12.5q5 8 0 12q0 9 0.5 20t5.5 17v4q0 30 22.5 50.5t52.5 20.5q10 0 18 -6q14 0 26 -13t12 -25
q0 -3 -2 -7t-4 -7l-9 -1q-3 -9 -9 -5l-2 -7l-8 -1q-12 0 -12 10q2 12 2 18l-3 9l-13 -1l-10 -13l1 -4q0 -4 -3.5 -19.5t-3.5 -22.5q0 -3 3 -10t3 -11q3 -6 7.5 -12t12.5 -7q8 -3 17 -5q15 -6 34 -9t35 -3q12 0 20 4q4 5 15 12t14 14q20 15 20 46q0 13 -0.5 26.5t-0.5 27.5
q-3 7 -5 25.5t-34 32.5l-34 26q-2 6 -13 8q-5 7 -20.5 19.5t-29 26.5t-23.5 32.5t-10 40.5q0 23 9 43t26 44q21 10 38 18.5t24 11.5t7 5q-7 9 -7 25l1 20q1 3 4.5 36.5t5.5 45.5q8 14 16 14q3 0 9 -3t9 -3q2 -7 20 -26.5t17 -22.5q14 -11 14 -39q0 -9 -3 -15q0 -1 1 -11
t2 -11l4 1q10 -3 20 -5.5t33.5 -19t33.5 -20.5l8 -8q16 -2 16 -18l-4 -18q-3 0 -22.5 -15.5t-25.5 -16.5q-7 -7 -12 -7q-3 0 -8 2.5l-7 3.5l-3 10l3 10q3 16 3 24q0 11 -6.5 21.5t-17.5 10.5h-4q-3 -5 -16 -5q-2 -2 -17 -5t-17 -11l-8 -1l-10 3q-2 -3 -10 -7t-9 -10
q-9 -4 -15 -17q-5 -16 -10 -31q0 -4 6.5 -7t5.5 -8l11 -4l8 -12l19 -6q51 -22 79.5 -36.5t32.5 -24.5q8 -4 14 -6.5t9 -6.5q12 -4 25.5 -21t29.5 -37q1 -3 7.5 -8.5t7.5 -10.5q5 -2 10 -10t7 -10l3 -8l-1 -10q4 -3 4 -11.5t5 -11.5v-12q0 -4 3.5 -13.5t1.5 -16.5l3 -9
q-1 -3 -0.5 -11.5t0.5 -12.5q0 -12 -12 -17z" />
    <glyph glyph-name="percent" unicode="%" horiz-adv-x="610" 
d="M220 493q-1 -7 -4.5 -10t-13.5 -7l-11 -9h-7q-5 -9 -10 -8q-8 -10 -19 -10l-8 -3q-4 0 -9.5 2.5t-7.5 3.5h-5q-9 0 -12 5q-11 2 -19 8q-2 4 -7.5 7.5t-10.5 6.5q-6 6 -12 13l-20 19l-3 8q-7 6 -12 23.5t-5 29.5q0 7 2.5 19t5.5 27q33 43 47 47q26 5 52 11q13 -5 24 -5
q33 -21 67 -41q1 -3 7 -11.5t10 -12.5l10 -36q0 -21 -7.5 -41t-21.5 -36zM508 588l-5 -7q0 -10 -6 -24q-7 -7 -3 -12l-10 -54l-7 -10q-2 -1 -6.5 -10.5t-7.5 -16.5q-5 -1 -7 -10.5t-4 -10.5l1 -4q0 -5 -2.5 -12.5t-2.5 -9.5q-7 -4 -13 -17q0 -5 -3 -10.5t-5 -9.5
q-4 -9 -8 -17q-14 -12 -16 -30q-5 -2 -6.5 -10.5t-3.5 -10.5l-8 -20l-19 -21q0 -4 -13.5 -20t-23.5 -28q-12 -6 -26 -6q-13 -3 -23.5 -19t-13.5 -18q1 -9 -8 -14l-8 -20l-12 -12q-2 -9 -15 -15q1 -6 -5.5 -8t-7.5 -3h-9q0 -5 -3.5 -7t-7.5 -2q-2 -2 -3 -9t-3 -9
q0 -14 -10 -15q-6 -13 -10.5 -21.5t-11.5 -14.5q-5 0 -10.5 -5.5t-7.5 -6.5q-5 -10 -12 -14l-7 -1l-8 6q0 14 5 19q10 21 21 46.5t14 41.5q10 14 14 45.5t9 41.5t28 43t23 50q0 19 22 53.5t24 40.5q3 1 28.5 46.5t28.5 50.5q4 3 14.5 21.5t26.5 34.5t51 58.5t67 80.5l9 4
q11 -7 14.5 -11t5.5 -16l-4 -12q2 -11 5 -16zM625 106q-4 -8 -10.5 -33.5t-8.5 -29.5q-12 -3 -9 -10q-6 -6 -12.5 -12t-13.5 -11q-2 -2 -10 -4t-9 -7q-3 0 -8.5 -3t-8.5 0q-10 -5 -20 -5q-12 0 -34 6q-6 4 -11 9l-11 3q-31 29 -44.5 48t-13.5 48q0 44 10 60.5t49 52.5l20 10
l3 -1q6 6 10 6l14 -4l16 1q32 0 49.5 -14.5t43.5 -49.5l-2 -3q0 -2 3 -6t2 -7q0 -7 4.5 -20.5t4.5 -17.5zM182 608l-37 -15q-2 -3 -9 -5t-6 -8q-25 -9 -36 -34q-6 -3 -6 -9q0 -10 1 -19q5 -9 16.5 -16.5t22.5 -13.5l12 -2q11 4 22 9q13 2 21 19.5t12 20.5q2 8 6 16.5t9 17.5
q-2 9 -11.5 23.5t-16.5 15.5zM564 151l-8 1q-10 -1 -20 -1q-8 -5 -28 -7q-1 -5 -8 -19t-12 -18l-3 -5v-22q0 -5 -1 -11t-1 -9q28 -30 62 -30l5 3q13 18 22.5 33.5t16.5 37.5q-9 19 -14 28.5t-11 18.5z" />
    <glyph glyph-name="ampersand" unicode="&#x26;" horiz-adv-x="536" 
d="M550 34q-4 -9 -8 -17l-5 2l-10 16l-8 8q-4 1 -8 7t-8 8q-8 10 -16 21l-7 3l-10 -11q0 -4 -11.5 -8.5t-39.5 -22.5t-38 -24.5t-27.5 -9.5t-25.5 -7h-4q-9 0 -28.5 -5.5t-27.5 -5.5q-27 0 -58 10.5t-51 27.5q-39 10 -68 50t-29 83q0 86 10 126.5t32 74.5q8 10 14 18t7 13
l13 14q3 2 6.5 7t7.5 11.5t24.5 29t25.5 29.5l10 6l-5 13q-5 5 -8 12t-7 17q-2 9 -3 18q-5 13 -5 19q0 14 1 28q4 9 7.5 37t4.5 32q4 5 10 14t9 17q18 16 37 32q9 12 31.5 16t42.5 8q33 -9 47.5 -21t28.5 -45q3 -13 6 -26.5t3 -25.5l6 -14v-21l1 -6q-4 -19 -14 -38
q1 -8 -4 -13q-3 -6 -9 -12t-6 -13l-2 -16q-7 -16 -24 -39t-24 -32q-8 -7 -12.5 -15t-7.5 -14q3 -2 13 -16t17.5 -23.5t17 -21.5t16.5 -16l2 -6q5 4 14 10t15 9.5t10 3.5q13 -3 18 -4q4 2 9 2q12 -7 23 -7l14 -4l3 -4q13 -5 22.5 -16.5t12.5 -14.5l3 -10v-8q1 -3 6.5 -24.5
t7.5 -23.5l3 -17l-5 -21q-5 -2 -5 -13v-9q-4 -1 -4.5 -10t-0.5 -12l-4 -20l-1 -5l11 -22q6 -2 6 -17q4 -4 7.5 -18.5t4.5 -17.5zM341 673q-11 19 -16 26.5t-10 12.5l-17 1q-9 0 -22 -8q-1 -2 -7.5 -9t-6.5 -10q-8 -5 -15.5 -20.5t-7.5 -27.5l-4 -8l-1 -17q0 -7 12 -45
t16 -45l10 8q29 40 44.5 62.5t26.5 59.5zM474 290h-7q-7 3 -15 1q-19 0 -40 -9l-6 -6l12 -11l9 -19l6 -4q1 -7 7 -17l-1 -3q1 -4 13.5 -13t15.5 -10q5 -13 11 -25q9 14 13 39t8 33zM436 140q-18 15 -39 40t-32 46l-3 -1q1 -5 5 -15.5t5 -17.5l-3 -5l-13 -10l-9 1l-10 10
l-10 23l-1 23l2 2l2 14l9 10v10q-5 11 -31 49t-26 43l-5 -3l-9 -10q-6 0 -8 -15q-4 -2 -7.5 -7.5t-6 -11t-6.5 -15.5l-10 -9q1 -6 -3.5 -9t-5.5 -10t-4 -9q-1 -6 -5 -12.5t-6 -21.5l-4 -4q2 -1 3.5 -8.5t1.5 -19.5q0 -24 1 -30l10 -18q0 -6 3 -11.5t4 -7.5l-1 -3q1 -6 8 -15
t9 -13q7 -5 15.5 -10t25 -8.5t30.5 -3.5q19 0 52.5 14t49.5 28q8 3 17 6l9 6z" />
    <glyph glyph-name="quotesingle" unicode="'" horiz-adv-x="754" 
d="M749 331l1 -4q-5 -10 -5 -23l-7 -6l6 -34l-3 -5v-12q0 -12 -5 -17l-4 -14l-1 -7l3 -5l-6 -17l-6 -4l-4 -10l-14 -11l7 -5q-11 -19 -30 -31q-16 -3 -10 -13l-9 -3v-5l-17 -29q-4 -1 -9 -2.5t-6 -1.5l-7 -9q-10 -3 -32.5 -14t-32.5 -15q-9 -11 -17 -8q-13 -8 -22 -20l-5 2
q0 -18 -22 -18q-14 0 -48 6.5t-46 6.5q-7 0 -11 4q-12 0 -42 5.5t-38 5.5q-21 0 -52.5 15.5t-95.5 50.5q-22 21 -34 33t-19 12l-17 17l-6 16q-18 13 -23 25q-5 19 -9.5 38t-7.5 48q-8 39 -15 79q-4 7 -6.5 15.5t-3.5 13.5q4 19 3 30q6 9 13 19l-1 26l3 22q-2 7 5.5 20
t33.5 53.5t80 99t92 65t66 12.5t49 18q9 0 28 4t28 4t27 -3t27 -3q3 -4 12 -5t11 -6q8 -5 17 -10t14 -12q34 0 80 -35.5t72 -71.5v-4q0 -11 6 -19q10 -9 15 -14q4 -1 7 -9t7 -10l6 -11l-1 -4q6 -8 13 -18.5t6 -15.5l4 -12v-7q2 -4 2 -18v-16q0 -13 5 -16q4 -10 5 -29.5
t3 -31.5l-3 -19l5 -17zM634 403q0 12 -4 34t-4 33l-36 80q-8 14 -33.5 39.5t-34.5 39.5q-26 17 -37.5 23.5t-46.5 20.5q-11 -7 -23 -7h-16q-13 0 -53.5 -9.5t-43.5 -17.5h-4q-7 -9 -15 -6l-5 -3l-16.5 -10.5t-5.5 -9.5l-13 -12l-4 -16q-4 -2 -7 -12t-8 -11q-8 -16 -9 -20
t-1 -24q-9 -3 -23 -22t-12 -24l-8 -22l-7 -5q-1 -5 -3.5 -9.5t-6.5 -11.5l-2 -18l6 -11l8 -15v-4q0 -5 7.5 -14.5t4.5 -16.5l5 -6v-4l8 -9l1 -16q-7 -10 -8 -21q4 -13 7 -22.5t8 -17.5l4 -22q5 -14 13 -16l10 -10q5 -1 12 -7t8 -7l5 -8l8 -19q10 -15 16 -21l20 -10
q12 -8 21 -13t13 -10q4 1 15.5 2t15.5 2q4 -1 17 -1q40 0 94 9.5t63 22.5l11 7q7 12 21 24t27 23q5 11 19 28.5t16 23.5v6q1 12 3 25q4 11 5 21t1 25q0 21 1 25t6 18q-4 17 -5 23t-5 16z" />
    <glyph glyph-name="parenleft" unicode="(" horiz-adv-x="424" 
d="M454 -132l-15 -11l-8 -1q-15 0 -34 13t-26 15q-30 33 -61 67.5t-55 70.5q-22 29 -45 87t-40 105q0 22 -7 63t-7 59l-1 22q0 32 17 103t32 97q2 9 15 30t28 46q35 43 71 87q3 10 21.5 27.5t29.5 23.5q5 8 23.5 22.5t26.5 14.5q5 -5 9 -14.5t5 -18.5l-4 -19q-7 0 -12.5 -9
t-11.5 -10l-5 -17q0 -9 -13 -26l1 -3q0 -8 -6 -13q-1 -4 -7.5 -26t-5.5 -26l-12 -56l1 -3q0 -2 -2 -4.5t-7 -6.5q0 -2 -2.5 -9.5t1.5 -10.5q-2 -3 -4 -19.5t-2 -20.5q0 -8 -6 -22q2 -3 2 -12q0 -7 -4 -29t-4 -35q0 -7 2 -17q0 -18 1 -32t2 -27q0 -12 4 -17q3 -13 -3 -17v-24
q0 -7 3 -19t3 -17l-3 -6l9 -39q2 -3 2 -10q0 -4 -3 -9q7 -13 3 -27l1 -13l-5 -11q8 -12 9.5 -14.5t1.5 -9.5q3 -1 3 -5v-7l3 -4q1 -3 6.5 -12t6.5 -15q2 -2 2 -10t6 -9q8 -18 16 -35l-3 -5l9 -12l-1 -5q0 -4 4.5 -7.5t4.5 -6.5t-3 -9l13 -23l-1 -11l7 -6l-1 -5q0 -3 6 -7
t7 -6l8 -6q5 -7 5 -12z" />
    <glyph glyph-name="parenright" unicode=")" horiz-adv-x="418" 
d="M403 228q1 -3 -1.5 -9.5t-1.5 -9.5l-5 -13q-4 -11 -6.5 -18t-7.5 -16t-4 -15q-9 -18 -17 -35q0 -9 -6 -15q-28 -59 -87 -128.5t-113 -106.5l-14 -3q-10 -1 -16 -1q-7 4 -7 6q0 5 8.5 9t8.5 10q6 7 13 24t5 23q1 4 0 12.5t0 14.5l-2 9l9 30q0 6 6.5 13t4.5 13l2 3
q2 9 11.5 33t9.5 31q6 12 7 16t1 18q0 8 5 11q4 12 3 19q5 2 6.5 7.5t1.5 13.5q2 9 9 14l3 17q6 9 0 15l1 8l6 6l-4 16q3 11 7 22l1 23l5 4l1 26l4 3q-2 14 -2 21q0 5 3 10q0 5 -4 17t-1 17l2 41q0 27 -16 52l-9 37l6 9q-6 2 -6 14q0 7 -2 9l2 6q0 3 -4.5 8t-4.5 9l-5 12
q7 5 7 10l-3 7l-6 29l2 3q-5 4 -5 16v12l-5 10l3 8l-4 6l-3 -1q-2 0 -5 8l-7 13q-3 2 -7 10t-9 8q-29 32 -39 47t-12 28q7 11 15 11l50 -42q62 -42 105 -103t62.5 -107t24.5 -66t12 -35l3 -22l2 -8q3 -3 3 -13q0 -6 3 -9l3 -12l-1 -3q2 -11 4.5 -21.5t3.5 -25t1 -34.5
q0 -18 -0.5 -35t-0.5 -33z" />
    <glyph glyph-name="asterisk" unicode="*" horiz-adv-x="555" 
d="M576 585l-7 -3q-5 1 -11 -4t-9 -5q-1 -2 -9 -8.5t-13 -15.5q-8 -5 -22.5 -18t-30.5 -18l-5 -4l-5 1q-4 0 -11.5 -5.5t-11.5 -5.5q-8 -2 -8 -4q11 -9 25.5 -21.5t14.5 -17.5q10 -2 11 -9.5t7 -6.5q3 -9 5.5 -14.5t2.5 -10.5v-7q0 -7 5 -10q6 -13 10 -17.5t8 -5.5l6 -12
l-15 -11q-2 1 -10 1q-6 0 -8 3q-3 -1 -7 1.5t-6 1.5l-22 18q-9 8 -15 9q-9 7 -17 14l-28 18l-7 4q-4 -1 -5.5 -7.5t-3.5 -8.5q-7 -15 -15.5 -30t-15.5 -13l-2 -9q-5 -6 -8.5 -10.5t-1.5 -10.5l-3 -17q-4 -2 -4 -13q1 -10 1 -13q-4 -10 -10 -10q-8 0 -14 23.5t-6 38.5v44v21
q0 11 -0.5 24.5t-3.5 29.5q-5 -1 -12.5 -9t-9.5 -9l-7 -13q-3 -2 -18 -16t-17 -14q-5 -7 -16 -12l-3 1q-9 0 -11 -9l-20 -4l-18 -3q-10 0 -17 1.5t-19 11.5q1 8 7 22q6 6 11 9.5t8 10t7 7.5q22 29 45 50l-2 4q-14 -4 -28 -5.5t-35 -1.5q-26 0 -42.5 6t-16.5 15q3 7 4 8l1 10
q4 1 7 4t18 3l18 6q12 -2 17 3q14 0 40 4.5t29 4.5l20 2q0 4 -6 8q-16 16 -34.5 36t-25.5 34q-6 3 -11.5 11t-8.5 11l-10 27l5 9q0 8 9 15q12 -1 25 -10.5t18.5 -14t9.5 -8.5l13 -6q8 -10 16 -12q1 -6 7 -8.5t8 -5.5q8 -3 17 -11.5t17 -16.5l2 3q-3 11 -4 35.5t-1 26.5v80
q8 10 8 17l8 4q11 -9 19 -16.5t6 -14.5l26 -28v-4q0 -3 2.5 -9t2.5 -10l3 -7q1 -8 3 -13.5t1 -10.5q1 -5 3 -10q4 3 15.5 15.5t18.5 18.5q5 1 20 12t21 13q6 5 23.5 14.5t22.5 12.5q8 9 18.5 16.5t16.5 11.5l9 -1q-5 -5 -11.5 -14.5t-7.5 -10.5l1 -7l-4 -9q-12 -7 -11 -17
q-3 -5 -5 -8.5t-6 -4.5q-12 -17 -23 -34l-26 -32q0 -10 -5 -18l2 -4l-5 -7l1 -3l65 5l24 1q11 0 33 3t33 3l5 -3q-3 -12 -9.5 -13t-8.5 -4z" />
    <glyph glyph-name="plus" unicode="+" horiz-adv-x="663" 
d="M688 351l-11 -3l-4 1h-14l-6 -2q-21 -18 -34 -29t-14 -17q-5 -6 -16 -10.5t-15 -8.5l-16 -2l-22 -8q-10 -1 -19 -2q-7 -4 -15 -4q-11 -1 -21.5 -1.5t-12.5 -3.5l3 -18l-2 -8q3 -3 3 -11q0 -9 2 -13q-4 -4 -4 -17q-7 -6 -9 -17q0 -10 -3.5 -12t-12.5 -6l-1 -7
q-13 -11 -11 -20l-4 -10l-11 -7q-2 -10 -6 -15l-3 -14l-2 5q-6 -2 -9.5 -8t-8.5 -5l-4 -13q-5 -2 -8 -14l1 -5l-4.5 -10.5t2.5 -7.5q-4 -11 -4 -23q0 -4 -4.5 -4t-5.5 -2q-6 7 -11.5 36t-7.5 35l-2 18l-3 13q-1 10 -2.5 19t-3.5 31.5t-1 26.5q-2 7 -4.5 16t-2 16t-3.5 11
q-1 8 -1 17q-2 2 -2 4.5v5.5l-2 5l-2 9q3 11 -4 15q-4 -1 -13.5 -0.5t-17.5 1.5q-3 -3 -8 -2q-11 0 -37 4t-28 6t-12 2q-7 0 -11 4q-9 5 -15 4q-9 7 -24 10q-4 2 -11.5 10.5t-13.5 8.5q-8 6 -15.5 12.5t-13.5 17.5q6 4 12 9l10 -2h26q5 3 12 1l6 1q8 0 23 3t22 3q2 1 13 1
q7 1 15.5 2.5t13.5 0.5l2 2l55 -4l8 2v26v9q4 33 9 67l17 66q3 12 6 16v8q0 4 3.5 14t1.5 16l2 13l5 -1q5 -1 16 6q6 -2 31.5 -25t29.5 -27t6 -10t3.5 -7.5t7.5 -13.5t5 -14l2 -7q2 -2 3.5 -8.5t3.5 -8.5l-2 -4q3 -18 6 -35q-1 -11 -1 -17q-1 -9 0 -18.5t4 -22.5
q-2 -1 -4 -8l1 -3q12 -3 36.5 -5.5t43.5 -2.5q3 -3 64.5 -9t66.5 -6q5 -2 10 -3t5 -4z" />
    <glyph glyph-name="comma" unicode="," horiz-adv-x="308" 
d="M321 -11l-5 -6l3 -10l-5 -15q1 -7 -7 -12l-6 -20q-4 -2 -20 -2q-4 -14 -4 -22l-10 -3q-4 -7 -9 -12t-5 -10q-9 -6 -17 -12q-2 -5 -6.5 -7t-10.5 -5q-10 -2 -12 -11q-5 -1 -11 -7l-8.5 -8.5t-6 -4t-4.5 -5.5q-4 0 -9.5 -6.5t-9.5 -5.5l-7 -3q-7 7 -11 3l-4 3v4q0 5 13 25
t32 43q5 9 5 14q5 5 10.5 15.5t7.5 15.5q0 3 3 8t3 8q3 9 7 17q-2 11 4 12l1 9l-1 11q-6 5 -24.5 12t-25.5 11q-8 10 -13 16t-6 12t-3 8q0 11 5 31t5 24q2 6 3 10.5t6 3.5q2 15 11 20l5 10l11 5q7 7 12 7q3 0 7 -2.5t5 -3.5l7 8q10 0 17 -4l14 -4q1 -2 8 -6.5t8 -8.5l5 -4
q5 1 10 -2.5t7 -3.5q3 -3 8 -7.5t9 -13.5q4 -2 11 -29t7 -34q-2 -18 -3 -29t-1.5 -17.5t-4.5 -9.5z" />
    <glyph glyph-name="hyphen" unicode="-" horiz-adv-x="491" 
d="M470 307l-9 -20q-4 0 -8 -5.5t-5 -5.5l-4 -14q-11 -3 -16.5 -5t-5.5 -6l-31 7l-13 -1l-2 -13h-8l-6 -9q-4 0 -6.5 2.5t-4.5 2.5q-3 0 -11 -3q-2 3 -6 5.5t-5 -1.5l-6 7l-2 -11l-13 -3l-7 4q-8 -6 -16 -8q-1 3 -6.5 1t-7.5 -4l-3 3h-11q-2 3 -6.5 3h-6.5q-4 0 -11.5 3.5
t-9.5 3.5l-10 6l-6 -2l-7 7l-10 -3q-9 7 -17 7q-6 0 -14 -5.5t-9 -5.5l-11 10l-8 -6q-24 9 -35.5 24.5t-19.5 43.5q4 7 9 13t10 6l21 17q11 0 31 7.5t29 7.5q17 0 58.5 -2t43.5 -2q10 0 34 2t26 2q13 -1 26 -1q6 -7 52.5 -19.5t64.5 -14.5v-14q0 -3 -4 -8t-7 -3z" />
    <glyph glyph-name="period" unicode="." horiz-adv-x="273" 
d="M292 70q-10 -9 -12 -29l-13 -10l-2 -11l-8 -14l-11 -1l-13 -9h-12q-9 0 -18 -3l-20 7l-9 -2q-39 0 -57 40l-12 42q0 17 8 31l-1 4q0 3 7.5 11t5.5 13q3 3 5 14.5t11 11.5l2 9q3 1 18 1q9 0 13 3l12 -3q4 1 12 -2t11 1h4q4 0 10 -5.5t10 -5.5l2 -3l17 -8q15 0 23 -12.5
t15 -24.5q-1 -8 1 -22t2 -16z" />
    <glyph glyph-name="slash" unicode="/" horiz-adv-x="436" 
d="M456 665q-3 -17 -8 -22q-5 -12 -9 -24l-6 -4l1 -13q-3 -1 -1.5 -5t-1.5 -6q-7 -30 -11 -46t-17 -35l-11 -41l-4 -24q-2 -4 -6.5 -16.5t-9.5 -16.5l-16 -46l-11 -9l-1 -11q0 -8 -8 -13q-7 -11 -16 -21.5t-9 -13.5l-17 -25q-4 -3 -7 -7.5t-6 -8.5q-1 -6 -7.5 -11.5
t-6.5 -11.5q-9 -15 -14.5 -23.5t-9.5 -6.5v-5q-7 -9 -8 -16l-7 -10q-1 -9 -10 -13q-1 -7 -7.5 -14t-15.5 -18.5t-16.5 -20.5t-15.5 -19q-3 1 -4 -4.5t-3 -5.5q-1 -4 -5.5 -6t-5.5 -5l-7 -8q-5 -16 -7 -17.5t-9.5 -13.5t-7.5 -21q-3 0 -4 -6t-5 -5l-7 1l2 15q3 29 12.5 61
t22.5 62l1 6q4 31 27 89.5t27 79.5q2 2 6.5 18t8.5 28l13 40q5 12 11 25q2 10 7.5 21l6.5 13l-1 6q7 3 7 16q3 1 6 8t5 10l9 17q2 1 4 9.5t5 9.5q11 21 17 32.5t12.5 25t9.5 14.5q5 12 14 24.5t16 19.5q5 11 33.5 43.5t39.5 41.5q3 0 7.5 3t7.5 1l12 5q1 0 3.5 -5t4.5 -5
q2 -7 2 -17.5v-19.5q-2 -11 1 -15z" />
    <glyph glyph-name="zero" unicode="0" 
d="M558 327q1 -13 -3 -18l2 -20l-2 -8l-1 -10q-4 -11 -4 -13q2 -5 2 -13q-2 -4 -4.5 -11.5t-5.5 -9.5q-9 -17 -17 -33q-4 -2 -9 -13t-4 -16q-5 -10 -9 -19l-14 -28q-3 -5 -10 -16.5t-8 -14.5l-6 -5l-1 -6q-13 -7 -25 -13q-22 -26 -35 -35.5t-21 -7.5l-2 -4q-8 -4 -40 -13.5
t-38 -8.5l-13 -6h-10t-6 3q-15 3 -19.5 4t-12.5 6l-3 -1q-6 2 -12 3l-9 5q-7 0 -14.5 4.5t-14 9.5t-12.5 10q-14 6 -33 26t-37 38.5t-31.5 51t-31.5 97.5l-10 62l-1 49l-1 10q0 7 2 21t2 20q2 7 5 47t10 53q4 21 26.5 71.5t36.5 63.5q1 4 9 14.5t9 12.5q5 2 10.5 8.5t7 9.5
t8.5 9t8 9q18 11 27.5 17t15.5 11l2 5l7 -1l20 6q5 2 11 4l29 3q5 -2 16.5 0t14.5 2l14 -3q10 -3 12 -2q9 -4 22.5 -8.5t32.5 -10.5q2 -3 26.5 -13t24.5 -17l18 -11l7 -11q5 -2 10.5 -9t11.5 -12.5t7 -11.5q3 -5 10.5 -15.5t8.5 -11.5l4 -2l7 -14t6.5 -8.5t10 -15.5t6.5 -17
q3 -2 3 -7.5t1 -8.5l-2 -7q-2 -9 1 -13v-5q5 -1 8.5 -17t3.5 -17l-1 -14l1 -5l-5 -10q6 -5 6 -22q6 -9 2 -20l1 -16l-2 -7l3 -21q0 -7 -5 -20t-5 -19zM394 448q-2 16 -5 24q0 31 -10 64t-26 62q-1 6 -10 19t-16 20t-13 16q-7 7 -13 13.5t-10 8.5q-20 1 -31.5 2t-17.5 1
q-11 0 -18 -10t-9 -11l1 -3q-5 -8 -7 -12q-7 -6 -20 -29t-17 -35q-2 -1 -6 -7t-8 -5l-4 -4q-4 -2 -9.5 -9.5t-8.5 -9.5l-3 1q-6 -8 -10 -11t-8.5 -17.5t-7.5 -15.5l6 -2l-4 -4q-1 -18 -1 -26t1 -12l-3 -9v-4l-4 -8q1 -7 -2 -19t-6 -17l-4 -23q5 -7 7 -19q-2 -12 -2.5 -16.5
t-2.5 -10.5l2 -22q0 -11 1 -21l5 -31l-3 -12l7 -14q0 -4 5 -16.5t5 -22.5l7 -12q4 -3 6 -11t5 -10l24 -40q4 -4 7.5 -7t7.5 -11q2 -1 25.5 -21t33.5 -15q10 -4 29 -4q9 0 18 5t17.5 10.5t16.5 11.5l43 68q3 21 12 42l4 24q3 10 6.5 22t5.5 21t2 17q0 18 9 57t9 51
q-3 15 -5.5 31.5t-2.5 27.5z" />
    <glyph glyph-name="one" unicode="1" 
d="M528 65q-4 0 -7.5 -7.5t-6.5 -9.5l11 -25q-3 -4 -10.5 -9.5t-15 -10t-21.5 -4.5q-3 0 -13 2l-6 -3l-44 2l-3 -2l-27 1l-4 -1l-6 1q-11 3 -16 -2q-7 2 -22.5 3t-23.5 1h-28l-12 -7l-13 8l-37 -3q-2 -2 -10 -1.5t-10 -1.5l-5 2l-3 -2l-18 -4q-9 7 -13 1q-13 -1 -28 6l-5 -2
q-8 4 -9.5 5t-9.5 0l-9 4q-12 0 -11 6q10 19 14.5 25.5t21.5 14.5l20 2q24 9 57 9l31 1l-1 10q-1 20 -1.5 40.5t-2.5 23.5l1 10q0 10 -1 21t-1 13q-1 2 -1 12q0 6 -2 8l1 7q-1 13 -1 27q-2 3 -2 14q0 6 -2 8v24q0 19 -2 21q1 13 1 19q0 4 -2 12l11 150q2 10 5 19.5t4 21.5
t1 25l-4 1q-7 -1 -14 -1q-2 -2 -9 -2t-11 -1q-2 -4 -8 -7.5t-7 -5.5q-12 -6 -20 -10.5t-15 -5.5q-2 -3 -10 -3q-12 0 -14 -1q-2 3 -7 1.5t-7 -1.5l-4 3l-6 3q-7 0 -15.5 3t-9.5 3l-10 7l-1 7q2 7 4 7l96 80q2 3 12.5 11t12.5 10q3 0 7 5t8 5q9 7 29 19.5t28 18t16 10.5
q4 3 4 9v12l-4 4q6 7 9.5 10.5t9.5 3.5q13 0 24 -8l14 -3l46 -36q4 0 7 -11l19 -24q1 -8 9 -16v-4q0 -10 6 -11q0 -8 5 -11l-1 -6q1 -10 3 -20l4 -8l-2 -5q1 -10 3 -20q-1 -11 3 -14q0 -6 3 -17t3 -17l4 -9l-3 -11q0 -9 3 -13v-15l-5 -15l-2 -2l-2 -29q-1 -1 -1 -18
q0 -3 -8 -14l4 -13l-3 -13q3 -14 3 -31q0 -9 -1 -27t-1 -26q0 -10 -0.5 -19.5t-5.5 -18.5l2 -22q-5 -10 0 -15l-2 -28q0 -3 -4 -9t-4 -7l-8 -5v-10q-1 -2 -7 -3t-6 -6q-3 -6 -6.5 -11t-3.5 -8q-4 -4 -6.5 -9.5t-2.5 -8.5q0 -13 -2 -15l1 -5q14 -2 46 -7.5t41 -5.5t30.5 6.5
t26.5 6.5q7 -3 7 -5z" />
    <glyph glyph-name="two" unicode="2" 
d="M527 91l-3 -7v-5q-2 -8 -4 -9v-9q-9 -12 -15.5 -21t-3.5 -14q-1 -1 -13 -4.5t-15 -3.5q-5 0 -7 3q-2 -3 -8 -7t-7 -10q-9 -4 -15 -6t-11 -2q-1 -1 -7 -1t-7 -3q-1 2 -2.5 3.5t-2.5 1.5l-9 -8q-7 4 -21 2q-6 5 -14 3q-1 2 -14 5.5t-18 3.5l-18 4l-15 6q-2 2 -6.5 3t-9.5 3
l-5 -1q-8 2 -9 4q-8 -1 -12 -1q-6 0 -10 4l-10 -3l-4 3l-36 2q-5 0 -13.5 -5t-11.5 -7q-3 0 -9 -4t-10 -2l-8 -6h-11q-9 0 -11 -6q-3 -2 -6 -3t-5 0l-8 -6q-11 3 -11 5l-23 17l3 7q-2 5 -3 6q-4 -3 -5.5 -4t-5.5 -4l-4 8q0 5 7 17v6q1 9 3 11q2 11 19.5 45t17.5 35
q7 12 25 61.5t31.5 60t18.5 16t4 9.5q8 9 27.5 42.5t22.5 37.5q4 1 6.5 8t5.5 8l26 49l3 9q2 1 5 7t5 8q-1 5 5.5 14t6.5 13q2 2 3.5 9t3.5 9l8 39l5 9l-1 3q0 7 6 17q-1 10 -1 15q0 6 3 11v8l-3 34q-13 25 -19 34.5t-17 18.5q-9 4 -15 4q-4 0 -15 -6.5t-14 -7.5
q-10 -10 -16 -8l-9 -3l-40 -37q4 -11 4 -27q-5 -10 -9 -20q-10 -10 -18 -8h-17q-3 10 -13 12q-6 3 -12.5 10.5t-6.5 12.5q0 6 2.5 18.5t2.5 13.5q-6 6 -6 10l3 5q-2 7 5 17q26 18 45 30t33 19q10 3 13 6q6 2 12 4.5t20 6t30 5.5q1 2 7.5 2.5t8.5 2.5h11l9 -2l2 2l42 -4
q2 -2 8.5 -4.5t8.5 -6.5q9 -7 19 -13q6 -8 12 -15q3 -8 8 -16t9 -16q7 -8 12 -10q1 -5 7.5 -10.5t11 -14.5t11 -23.5t12.5 -16.5l6 -13q-1 -5 -1 -15q0 -6 -1 -9q5 -11 2 -16l2 -14q-1 -5 -1 -11t1 -11q0 -10 -5 -14l-3 -17l1 -5q2 -2 3.5 -5t-1.5 -4l3 -6v-21q-3 -1 -3 -7
t-2 -7l-5 -11v-5q-2 -14 -3 -28q-4 -5 -7.5 -16t-4.5 -14q-4 -12 -5 -17q-3 -1 -5 -8t-5 -10q-2 -6 -8 -8t-11 -3l-62 -77q-1 -5 -7.5 -10t-8.5 -9q-12 -6 -22 -15t-15.5 -14.5t-13.5 -6.5l-5 -3q-10 4 -14 -11q0 -7 -2 -12t-5.5 -14t-10 -12t-8.5 -7l3 -5l27 -1l14 -9l77 2
q36 0 67 -3t48 -13q10 7 21 15q14 8 19 14q5 1 17 7.5t18 10.5l6 -7q-7 -5 -13.5 -14t-7.5 -19z" />
    <glyph glyph-name="three" unicode="3" 
d="M544 163v-12q-1 -1 -4.5 -12t-5.5 -17l-2 -4l-2 -6l1 -5q1 -9 -8 -16q0 -11 -6.5 -11t-7.5 -5l-7 -8l-7 -1q-2 -3 -6.5 -2.5t-7.5 0.5q-6 -4 -6 -6q-6 -5 -13 -6.5t-14 1.5l-16 -22q-9 -1 -18 -7q-11 -4 -17 -4q-12 2 -17 2l-7 5l-11 -6q-13 0 -16 -8q-7 0 -11 -7l-7 1
q-12 -1 -23 -2l-8 -4q-2 -4 -9 -5.5t-8 -2.5q-12 -1 -19 0l-7 -2l-9 5l-9 -6l-4 3q-11 -2 -16 4l-7 -1q-8 1 -9 3q-25 0 -38 3t-28 16q-14 2 -22 18q-4 0 -8 4t-6 6.5t-12.5 11t-16.5 17.5l-15 25q-1 11 -1 16q0 3 2 9q-2 4 0 9t2 7l3 11q-3 10 8 28t20 20q4 5 8.5 9t9.5 9
l11 1q5 2 8 -2l12 -3q8 -9 13 -15t6 -10.5t2 -11.5q-1 -3 -9 -4.5t-13 -2.5q-3 0 -4.5 4.5t-3.5 4.5l-11 -8q0 -3 -3 -8t-3 -9l-2 -2l1 -15l3 -10q6 -10 5 -18q13 -11 18.5 -15.5t11.5 -5.5q3 -2 15.5 -6.5t17.5 -8.5l5 1l5 -4q5 -10 11 -4l7 3l8 -4l21 1l12 3q20 0 62 34
t54 58l14 39l-1 5q0 10 1.5 23t1.5 18q-28 39 -56 79q0 5 -7.5 6t-8.5 2q-8 -1 -15 4l-5 2l-9 -2q-9 1 -21 3.5t-18 3.5q-2 3 -6 2.5t-8 -0.5l-12 8q0 3 -4 6t-4 6l-7 9l-7 3v10q2 2 8.5 12.5t10.5 10.5q1 2 9 2q6 3 6 5l9 1l6 3q3 -1 5.5 1.5t4.5 2.5l60 46q4 1 7.5 5.5
t5.5 5.5q1 5 8.5 13t9.5 17.5t4 18.5t4 11q3 13 6.5 29t3.5 26q0 7 -3 24t-7 21l-4 12q-3 4 -13 10t-11 7l-14 -1q-7 0 -10 2q-9 1 -17 2q-1 0 -9.5 -2.5t-13.5 0.5q-16 -1 -26 -1.5t-16 -10.5q-8 -4 -16 -7q-5 -7 -13 -10q-1 -3 -6.5 -5t-7.5 -6l-7 -2l-3 -10l-5 -4
q0 -9 4 -13q3 0 6.5 -5.5t6.5 -5.5l1 -10l-8 -9l-4 -1q-8 0 -9 5q-9 0 -17.5 9.5t-12.5 13.5q-7 1 -17 16t-10 24q0 27 21 59.5t45 30.5q8 2 16 5l5 3q11 3 17 4q10 0 20 -0.5t21 -0.5h15q14 1 27 -2.5t23 -4.5l10 -3q8 -1 17 -2l28 -11q2 -2 7.5 -4.5t7.5 -6.5
q11 -7 23 -13l28 -23q8 0 16 -10t12 -12q7 -9 11 -11q0 -3 4.5 -6.5t4.5 -6.5q5 -1 8.5 -9.5t5.5 -9.5q0 -4 5 -9t5 -9q3 -8 10 -17l3 -15q-3 -13 -4 -19q5 -14 1 -19q1 -8 3 -15q-1 -6 2 -14t3 -9v-5q1 -4 -2 -11.5t-3 -9.5l3 -7q0 -4 -4 -10.5t-5 -8.5q-4 -1 -8.5 -7.5
t-7.5 -7.5q-2 -11 -9 -20q-7 0 -16 -3.5t-13 -3.5q-7 -3 -10 -6t-10 -7.5t-9 -3.5l-4 -6q2 -3 16.5 -12.5t16.5 -8.5q7 -5 17 -12t11 -10l27 -33q5 -10 9 -14l15 -32q0 -3 4 -12t3 -15q1 -4 2.5 -14t2.5 -19q1 -14 -3 -19z" />
    <glyph glyph-name="four" unicode="4" 
d="M540 262l-4 -2l-7 -13q-3 -1 -10 -6t-12 -3l-15 -12t-8 -9l-13 -4q-3 -3 -10.5 -6t-9.5 -5q-7 -1 -18 1t-15 2l-11 -6l-11 1q-3 -11 -13.5 -18t-11.5 -10l-5 -2q-2 -12 -11 -15v-13q-1 -2 -1 -12q0 -7 -6 -7l-1 -7q0 -5 -4 -12t-1 -10q1 -7 -9 -20t-11 -16q-2 0 -4 -4.5
t-5 -5.5q-3 -9 -4 -19.5t-1 -23.5l-9 -5q0 2 -3.5 7t-2.5 8q-2 10 -4 21q0 14 -4 25v5q-2 12 -3 19t-1 9.5v5.5l-3 7q1 3 -1 8t-1 8q-4 10 -8 24t-3 18q-4 9 -6.5 22t-4.5 18q-18 0 -26 2l-9 6q-20 -5 -22 -5l-7 2q-8 0 -16 1q-8 4 -37 8.5t-38 4.5l-36 1l-9 4q-14 -2 -21 4
q-7 -1 -12 7t-9 15q20 46 30.5 73.5t12.5 36.5q6 9 12.5 21.5t9.5 20.5l18 28q5 12 52 88.5t53.5 86t9.5 16.5q9 13 15 18q7 20 18.5 39.5t26.5 37.5q7 1 9 13q2 2 6.5 9.5t7.5 9.5h16q12 0 23.5 -25t11.5 -41l3 -18q4 -8 10 -17.5t6 -14.5l4 -9q8 -8 7 -14q4 -6 5.5 -16
t3.5 -19q6 -8 4 -14l18 -62l-2 -7q3 -1 4 -8t3 -9q3 -21 4 -24q0 -6 -1.5 -14.5t-2.5 -12.5l4 -5l2 -9q-1 -17 -1.5 -28t-5.5 -22l2 -3l1 -31l-12 -34l31 -6q10 -1 20 -1q12 -2 36 -2q38 0 49 3q5 -1 15 -1h20.5t14.5 -1l3 -3q-5 -4 -25.5 -10.5t-23.5 -12.5zM242 307
q-2 3 -2 8.5t-2 8.5q1 5 -1 12.5t-2.5 10t-1.5 13t-1 24.5q0 15 -0.5 31t-0.5 33q0 16 1 32.5t4 29.5q-4 -7 -14 -13l1 -5q-5 -12 -17.5 -28.5t-21.5 -16.5q-2 -7 -11 -15t-11 -11l-18 -23q0 -2 -8 -18q-4 0 -6 -2.5t-5 -10.5l-10 -6q1 -7 -11 -12l-5 -16q-8 -10 -15 -19
q0 -4 -13 -18t-17 -16l-2 -8l16 2l9 3q2 2 8.5 2t8.5 2q13 0 24 -0.5t20 -3.5q33 7 57 10.5t44 3.5l4 8z" />
    <glyph glyph-name="five" unicode="5" 
d="M535 703q-19 -6 -25 -7.5t-18 -1.5l-16 -3q0 -12 -7 -11l-6 -7h-7q-8 0 -14 -1.5t-12 -2.5q-9 -9 -14 -11t-17 -2l-4 2q-8 -8 -14 -9l-4 -12l-5 1q-11 -2 -21 -4l-8 -3q-7 0 -14 1q-4 3 -23.5 6t-21.5 7h-5q-8 -1 -14 -3t-9 -2l-14 2q-3 -1 -7 0.5t-8 3.5l-24 7
q-3 -1 -10 -26t-7 -31q3 -7 5 -7q3 -9 4.5 -17t1.5 -15q0 -21 -10 -26l9 -1q14 7 23 7q23 0 53.5 -1.5t35.5 -6.5q11 0 32 -13t34 -13q7 0 10 -3l12 -3q8 -5 17 -8.5t14 -11.5l15 -9q1 -4 6 -8.5t5 -8.5q8 -6 7 -12q2 -2 9.5 -5.5t9.5 -8.5q10 -9 17.5 -16.5t5.5 -14.5
l12 -23v-11q5 0 8 -6.5t4 -7.5l2 -12q3 -3 3 -18l2 -8q4 -14 4 -21q-1 -8 -1.5 -12.5t-4.5 -7.5q-1 -12 -1 -24q2 -4 -1 -20t-7 -17v-15l-3 -10q2 -5 -2 -11.5t-3 -9.5q-6 -9 -12 -17l-5 -14l-10 -18q1 -6 -6.5 -11.5t-7.5 -10.5l-18 -17q-1 -3 -6.5 -5.5t-3.5 -8.5
q-6 -4 -21 -13t-21 -14q-10 -2 -16 -11q-29 -12 -47 -17.5t-40 -5.5h-17l-26 -11q-4 1 -20 4.5t-21 5.5q-8 9 -16 7q-13 8 -17 7l-8 5q-8 4 -11.5 5.5t-7.5 0.5l-6 2q-3 4 -7.5 6t-9.5 4q-9 0 -18.5 8t-16.5 18q-8 5 -19.5 19t-11.5 17l-8 5l2 5l-5 11q3 7 -1.5 18.5
t-5.5 14.5l2 9q-2 4 -2 14v12q15 30 20.5 37.5t25.5 21.5h15q6 0 9 2h11l13 -2l16 -11l4 -8l-2 -14q-7 -10 -15 -4q-11 -4 -21 -8q-4 -4 -8 -9.5t-4 -9.5q0 -11 6 -12v-22q0 -9 6 -14q0 -18 8 -32l15 -9q4 0 11.5 -3t11.5 -2l13 -3q2 -4 9.5 -4t10.5 -3q5 0 11 -3.5t8 -3.5
q15 0 39.5 19.5t26.5 19.5q3 3 10 17.5t9 20.5q7 8 12.5 19.5t10.5 22.5q-1 7 1 14.5t3 12.5t3.5 13t2.5 14v26q0 21 -2.5 41t-6.5 31.5t-16 29.5t-12 20q-4 6 -11 19t-12 18q0 7 -7.5 11t-16.5 9q-22 5 -43 10q-10 0 -31.5 7t-28.5 7q-10 0 -10.5 -6t-2.5 -7q-12 -8 -26 -8
l-8 1l-12 9l-1 5q4 11 4 17l1 4l-2 3q2 4 3.5 6.5t-0.5 4.5q2 3 2 12q0 6 2 8q6 34 9.5 57.5t3.5 43.5q2 4 2 19q0 8 1.5 14l3.5 14q3 4 5.5 13t15.5 17q-1 4 9 12t14 9l8 5q7 11 25 11l22 -1q3 -5 16 -5h25q13 7 56 11.5t68 4.5q11 0 27.5 -6.5t22.5 -6.5q8 -5 27 -5
q12 0 16 1l4 2h26t22.5 -3t13 -5t4.5 -8q-9 -11 -16 -10z" />
    <glyph glyph-name="six" unicode="6" 
d="M555 226q-5 -2 -4 -7l2 -10v-13q-4 -9 -7.5 -20.5t-6.5 -25.5q-4 -4 -10 -20t-12 -35q-14 -12 -22 -20.5t-5 -11.5q-3 -6 -9 -11.5t-12 -9.5q-2 -4 -7 -7l-10 -6q-4 1 -9 -3t-7 -4l-12 -10t-8 -11q-6 -2 -17.5 -9.5t-14 -9t-8.5 -1.5q-14 0 -16 -1q-3 2 -10.5 -4t-9.5 -3
q-5 8 -11 4q-6 -1 -20 6l-4 -1q-10 2 -17 3.5t-12 5.5h-7q-6 0 -21.5 8t-17.5 12l-44 21l-7 -2q-1 5 -11 9.5t-11 5.5l-10 5q-7 9 -26.5 37.5t-25.5 42.5q-14 18 -32.5 69.5t-18.5 76.5q0 9 3 14q-3 7 -4 18t-1 13l2 24q6 12 10.5 38.5t8.5 37.5q3 1 5 8t5 8q4 11 6 18t7 13
q5 12 7 18q4 2 7 7t10 16t37.5 42.5t61.5 63.5q16 13 30 23.5t25 18.5q16 7 41 23.5t34 22.5t21 8.5t16 4.5q2 4 8.5 6t8.5 5q4 -1 8.5 3t7.5 4l9 3q6 9 11 3q2 2 9 4t10 4l15 3l5 -1q5 1 11 -2t7 -3l2 -14q-10 -10 -6 -16q-2 -9 -9 -12q-3 -7 -12 -12.5t-14 -8.5v-8
q-3 -5 -13.5 -13.5t-13.5 -11.5l-11 -4q0 -3 -14 -17t-14 -18q-5 -1 -7 -9t-6 -10l-9 -15q-7 -8 -13 -15q-3 -7 -6.5 -14t-9.5 -10q-5 1 -7 -6t-5 -8q-4 -11 -14.5 -34t-13.5 -25q2 -9 -6 -11q-13 -36 -25 -71l1 -4q11 5 23 11q5 6 14 6h4q6 1 13 3l25 7q15 -1 46 -3.5
t48 -19.5q10 -1 18.5 -13t14.5 -19l13 -6q1 -4 8 -7t8 -8l13 -6q11 -8 15 -13q12 -6 12 -12l7 -7l-1 -4q0 -3 4 -6t4 -10q2 -10 5 -20q5 -5 4 -9zM430 327q-9 4 -17 9q-9 -2 -26.5 2.5t-24.5 4.5l-5 -2l-14 1l-9 -3q-7 1 -14 -6l-6 2q-11 -3 -21 -6l-30 -15l-17 -11
q-4 -12 -7.5 -24.5t-3.5 -14.5l-9 -23l1 -3q0 -6 -3 -15t-5 -17q4 -3 4 -8q0 -4 -2 -8q2 -6 3 -10.5t4 -7.5l-1 -3q0 -4 3 -9t1 -8l4 -18l-1 -4q0 -6 5 -11l1 -8q0 -9 25.5 -18.5t35.5 -6.5q3 -1 10.5 0t12.5 -1q33 3 50 7t38 15q20 13 36 35l24 42q6 14 13 29
q-4 34 -18 67.5t-37 46.5z" />
    <glyph glyph-name="seven" unicode="7" 
d="M566 630q-9 -1 -9 -26q1 -18 1 -23q0 -11 -3 -17t-13 -19q-4 -15 -10 -22t-8 -11q1 -2 1.5 -4.5t0.5 -5.5v-10q-5 -2 -4 -9t-3 -9q-3 -10 -6 -19l-7 -17q-7 -7 -6 -15q-1 -6 -6.5 -20.5t-5.5 -23.5q-3 -5 -4 -8t-2 -5q1 -5 1 -10l-2 -5q0 -5 -5 -12.5t-6 -12.5
q-5 -6 -8.5 -16t-6.5 -21q-10 -6 -8 -20q-1 -5 -10 -5l-7 -2l1 -7q-2 -9 -4 -10l-5 -16q-6 -9 -14 -4l-7 2q-2 -8 -2 -26q-3 -1 -5 -7t-6 -7q-6 -13 -11 -18q-11 -4 -13 -11q-10 -8 -17.5 -17.5t-14.5 -19.5q-6 0 -12.5 -5.5t-10.5 -4.5q-8 -8 -9 -16q-8 -10 -14.5 -16
t-11.5 -5q-5 -9 -13 -18t-14 -12q-4 -6 -10 -13.5t-9 -13.5l-6 -1q0 -8 -6 -12l-5 -8l-11 -1q-7 0 -10 7v44q2 3 3 17.5t1 18.5q0 9 3 12q1 3 2.5 13.5t5.5 14.5l-1 5q0 4 8 20l3 24q0 16 6 30q4 4 5.5 15.5t3.5 14.5l1 9q4 1 4 11l3 7q2 12 5 25q1 12 3 24q3 2 6.5 23.5
t5.5 26.5t5.5 14.5t2.5 13.5l8 16l-1 5q0 3 2.5 14.5t5.5 23.5q6 10 6 18l9 13q3 8 6 17q7 10 15 21q10 2 8 10q6 9 12 19q3 13 13 25l2 10q9 7 8 14q3 2 6 9.5t6 9.5q2 7 10 20.5t11 20.5q10 5 8 13l3 10l-10 2l-3 -1q-8 2 -15 4l-2 2q-10 1 -16 1l-7 -3l-12 -4
q-2 -2 -7.5 -3t-6.5 -4l-5 -3q-4 0 -14 -3t-14 -3h-20.5t-20.5 1l-7 3q-4 4 -12.5 5t-18.5 3q-1 2 -7 3.5t-7 3.5l-11 -1q-3 5 -17 3l-10 1l-31 -8l-5 3q-15 -2 -22 -2q-3 0 -9 2q-4 -1 -23 9.5t-33 19.5q-4 8 -4 12l4 15q4 1 10.5 -1.5t8.5 -2.5q6 0 14 0.5t10 3.5l28 4
q24 -2 45.5 -4t28.5 -9h12q6 0 11 3q9 1 19 2q21 7 37 7q1 2 17 3t19 2l9 -6q3 3 11.5 2t11.5 0q7 -2 13 -2h13l5 3h15q8 0 12 2q2 -2 10 0l5 -2h38l22 -2l22 -5q7 7 13 4q12 9 16 9t8.5 -3t9 -7.5t7.5 -8.5t0 -10q2 -5 11 -9l-1 -22q4 -7 11 -15t7 -23z" />
    <glyph glyph-name="eight" unicode="8" 
d="M560 174q-3 -3 -4 -13.5t-6 -12.5q-6 -10 -3 -17q-3 -7 -6 -12t-2 -9l-9 -7q-4 -13 -10 -16q-3 -5 -17.5 -19.5t-20.5 -19.5q-6 -3 -8.5 -6.5t-5.5 -3.5q-5 -4 -15 -7t-17 -5q-5 -9 -11 -7l-18 -14q-5 -1 -11.5 -7t-9.5 -6t-7 4l-13 -2q-3 -4 -13 -2q-5 0 -15 -2t-14 -2
q-20 0 -31 1.5t-67 12.5q-8 0 -29.5 8t-26 10t-26 17.5t-23.5 18.5q-18 13 -40.5 36t-22.5 37q-11 17 -15 42t-4 56q0 20 1.5 30.5t9.5 22.5q4 11 9 22l41 55q32 27 64 55q-10 9 -26 30t-18 23q-3 8 -13.5 37t-10.5 36q-1 13 -4 19q0 13 0.5 29t4.5 23q-4 16 16.5 41.5
t37.5 45.5q31 18 62 37q33 16 74 16l38 -1q2 -3 12.5 -5t24.5 -4h5l20 -6q7 -7 13 -4q1 -3 14 -9.5t18 -7.5q1 -3 7 -4t7.5 -4t11.5 -9.5t12 -12.5q12 -7 12 -15l6 -2q3 -5 6 -9.5t2 -8.5l7 -5q0 -15 7 -17l1 -6q11 -12 13.5 -28.5t5.5 -33.5v-17q0 -9 -5 -14
q-1 -8 -3 -16.5t-8 -8.5q-9 -19 -16 -33.5t-10 -24.5q-9 -8 -14 -12l2 -3q0 -2 -5 -10q-4 -1 -10 -7t-9 -7l-12 -6q-7 -8 -19 -15l2 -2q12 -3 21.5 -8.5t22.5 -13.5q7 -7 15 -13q18 -14 28.5 -25t9.5 -16q9 -7 8 -13q8 -9 13 -16.5t3 -14.5l6 -13q7 0 11 -11q-2 -8 -2 -11
q0 -6 1 -13l2 -14zM444 578l-5 10q1 5 -7 29t-12 28q-6 17 -14.5 29t-32.5 29l-10 -5q-24 -11 -45 -19.5t-35 -21.5q1 -9 -7 -15l-1 -9l-6 -6l-4 -22t-8 -20l2 -9q-1 -2 -2.5 -16t-1.5 -23l2 -44q4 -3 12 -17t11 -20q7 -5 21.5 -12.5t21.5 -9.5q0 -2 7 -5l44 3
q24 27 36 41.5t16.5 26t9.5 23.5t7 20t2 18q-2 13 -1 17zM417 312q-17 13 -27.5 17t-21.5 4t-36.5 4t-33.5 4l-12 -1l-3 -2q-13 4 -19 -6t-10.5 -18.5t-6.5 -17.5q-10 -15 -15.5 -23.5t-15.5 -16.5q0 -4 -6.5 -5t-7.5 -3l-3 -13l-2 -10q-3 -4 -3 -15v-11v-12l7 -13
q8 -12 17 -23l5 -9q5 -14 11 -27l6 -11q-1 -7 7.5 -13.5t9.5 -8.5q4 -2 10 -9.5t8 -9.5q0 -4 14.5 -11.5t18.5 -6.5q7 -3 18 -4t21 -1q45 0 68 27t40 48q1 5 10 16t9 19l1 5q0 49 -21.5 89t-36.5 68z" />
    <glyph glyph-name="nine" unicode="9" 
d="M536 399l-5 -1q6 -10 6 -15t-7 -12l-10 -10q-3 -1 -2 -6t-1 -8l3 -7q-4 -12 -4 -18l-7 -7l1 -5q0 -6 1 -12q-4 0 -22.5 -35.5t-51.5 -50.5l-11 -12q-2 -2 -9.5 -18.5t-13.5 -13.5l-5 -9q-1 3 -4 5t-4 3q3 -12 0.5 -13.5t-6.5 -1.5v-7q-4 -2 -7 -3l-8 -8l-12 -2
q-1 -6 -15 -14.5t-18 -6.5l-7 -9q-4 -1 -10 -7t-11 -7l-5 -7q-6 0 -15 -9.5t-14 -11.5l-9 2l-5 -13q-12 -5 -23 -10l-5 4l-11 -5q0 -6 -4.5 -5.5t-6.5 0.5l-5 -4q-5 5 -15 -2q-6 4 -14 -2.5t-9 -7.5l-5 1q-5 0 -15 -8t-17 -8l-9 -8l-9 2v9q47 73 113 126q6 8 12 18.5
t10.5 19.5t8.5 12q0 6 4.5 12.5t11.5 15.5q0 5 5 13t5 13q3 2 5 11.5t7 12.5l33 70q5 3 8 16l-1 5l-4 1q-2 0 -20 -4t-20 -3l-5 -1l-20 2l-15 7l-6 -1q-20 0 -56 19.5t-42 19.5q-5 5 -8.5 8t-8.5 4l-23 26l-1 6q-13 23 -26 47q-11 24 -11 54v18.5t2 13.5q2 18 4.5 32t5.5 26
t7 16q8 14 12 22q20 17 41 35q23 16 64.5 31t67.5 15q4 -1 10.5 -1h13.5q14 0 18 2q47 0 86 -8t71 -30q8 -17 18 -18q2 -3 7.5 -11t14.5 -14q1 -2 5.5 -7.5t5.5 -9.5l-2 -9q0 -7 5 -12q-1 -5 5 -10t5 -10q5 -10 8 -17t1 -14q1 -4 2 -18.5t0 -15.5q3 -2 6 -20t3 -25v-19
q0 -7 -1 -11l2 -17zM395 635q0 11 -8.5 19t-25.5 19q-2 0 -6 3.5t-7 1.5q-2 1 -12.5 0t-18.5 -2q-7 4 -8 6q-15 -10 -20 -9q-2 -1 -9.5 -0.5t-10.5 -2.5l-10 5q-3 -1 -11.5 -5.5t-12.5 -6.5h-9l-7 -8q-5 -1 -8.5 -7t-4.5 -9q-13 -10 -21 -12l-12 -18q-5 0 -9.5 -6.5
t-7.5 -6.5q-8 -8 -6 -14q-3 -3 -3.5 -11t-3.5 -10l1 -6q0 -10 -4 -24t-7 -14l2 -8q-1 -3 -1 -11q0 -7 3 -21t3 -22q5 -2 9.5 -9t12 -16.5t20 -14.5t18.5 -9q28 -6 57 -12q12 11 27 11h17q11 0 18 4q6 0 15 9t14 9q11 10 18 17.5t7 20.5q19 36 26.5 60t13.5 72
q-2 4 -8.5 19.5t-9.5 18.5z" />
    <glyph glyph-name="colon" unicode=":" horiz-adv-x="326" 
d="M313 394l-4 -18q-11 -8 -8 -15l-6 -12q0 -18 -22 -25q-9 0 -12 -8q-10 -2 -16 -2q-6 2 -7 4q-11 -2 -24 9l-9 -3l-6 3q-19 5 -32 15q-11 2 -31.5 21.5t-23.5 27.5v7q0 16 10.5 38t12.5 30q18 18 36 37h4q3 0 9 -3t11 -3l6 1q3 5 12 5l13 -1l13 -8l6 1q6 0 16 -2.5
t13 -2.5q7 -1 15 -5l12 -6q1 -2 7.5 -8.5t7.5 -10.5q5 -3 9 -11t9 -10q0 -9 -2.5 -14.5t-18.5 -30.5zM334 88q2 -5 -2 -15l3 -8q-4 -2 -4 -8t-3 -8l3 -8q-1 -1 -10 -15t-19 -17q-10 -14 -27 -21q-4 1 -12 1q-6 0 -11 -3q-12 3 -22 2q-8 4 -14 6t-11 0q-8 4 -14.5 7.5
t-8.5 4.5q-15 0 -26.5 11.5t-19.5 21t-8 19.5q0 8 -3 11v37q3 2 3 8.5t3 9.5q0 5 4.5 10.5t4.5 7.5q4 1 9.5 8.5t10.5 8.5q2 3 10 9t9 11q17 6 35 12q6 0 14.5 -3t10.5 -4q4 -4 11.5 -2.5t14.5 3.5q7 0 7 -9q3 -2 14.5 -6.5t14.5 -9.5q10 -3 16.5 -14.5t6.5 -20.5
q2 -10 5 -20q6 -3 6 -10zM251 432l-9 3v-4q0 -4 -6 -10t-7 -8q2 -2 7.5 -5t15.5 -6zM256 95l-4 1q-2 0 -5 -7l-15 -1q-5 -12 -8 -18l11 -4q7 4 15 9.5t10 12.5z" />
    <glyph glyph-name="semicolon" unicode=";" horiz-adv-x="375" 
d="M356 368q1 -5 -7 -10l-17 -18q-5 1 -8 -4t-5 -9q-7 -4 -10 -7.5t-12 -3.5t-12 -3q-9 0 -23 7t-23 7q-13 5 -23.5 10t-19 12t-19 17.5t-13.5 21t-3 24.5v16q3 4 7.5 10.5t11.5 13.5q6 6 11 15.5t15 30t36 23.5q8 -2 12 -1q2 1 3 8l5.5 -5.5t8.5 -3.5q8 -8 17 -10.5
t33 -6.5q10 -3 12.5 -6t11 -10t8.5 -14q9 -12 7 -28l2 -2v-17q0 -10 3 -14q-1 -3 2 -11t1 -12q-5 -13 -12 -20zM383 -13q1 -6 -2.5 -10t-7.5 -8v-12q-2 -2 -12.5 -3.5t-7.5 -9t-4 -7.5t-6 -5q-6 -12 -11 -24q-6 1 -15.5 -2t-15.5 -1l-6 -16h-10q-1 -2 -3 -7t-7 -5
q-10 -20 -35 -27q-2 -3 -13 -3q-3 1 -3 9q2 3 7 17q7 14 12.5 29t9.5 26t8.5 22t6.5 20.5t6 13.5q-1 3 1.5 10t-1.5 10q-8 -3 -17 4t-13 7l-4 3q-6 -2 -12.5 0.5t-12 4.5t-9.5 6t-8 9q-8 7 -14 7q-12 11 -19 24t-4 28q4 9 9 18q1 7 5.5 15t7.5 13.5t12 11t12 11.5q7 7 11 8
q8 0 13.5 -0.5t10.5 -3.5q7 0 11.5 0.5t4.5 6.5q5 2 12.5 -2t11.5 -3q7 -2 11.5 -3.5t6.5 -5t7 -3.5t7 -3q8 -1 14.5 -7.5t13.5 -12.5q4 -1 5 -3l2 -4t5.5 -5.5t8.5 -5.5q6 -8 12 -15q0 -5 1 -10.5t5 -6.5q2 -2 0 -12q5 -14 11 -17q4 -13 4 -18t-6 -7l2 -18q1 -6 -7 -13.5
t-2 -14.5zM257 110q-8 -7 -8 -18q0 -6 1 -9q5 -2 8.5 3t7.5 4q6 9 5 11q-3 11 -14 9z" />
    <glyph glyph-name="less" unicode="&#x3c;" horiz-adv-x="444" 
d="M444 -1q-5 0 -16.5 5.5t-21 3t-27 9t-28.5 10.5l-38 22q-23 8 -43.5 21.5t-34 24.5t-45.5 38q-16 17 -37 30t-37 36q-6 2 -18.5 17t-15.5 17q-4 10 -8 21t-19 16q3 6 -2 14.5t-3 14.5q5 -1 11.5 5.5t9.5 6.5q4 1 6 7.5t6 7.5q4 11 10.5 18.5t33 25.5t62 46t56.5 54
q55 42 111 85q11 12 22.5 24t25.5 15l6 2q3 -7 7 -14q-1 -8 -0.5 -11.5t5.5 -6.5q-1 -5 2 -9.5t2.5 -10.5t5.5 -16q5 -13 5 -19q0 -5 -4 -9q2 -11 -9 -22t-13 -16q-4 -1 -5 -7.5t-2.5 -7.5t-11.5 -15.5t-19 -17.5q-6 -7 -10.5 -12t-12.5 -7q-3 -3 -2 -8.5t0 -7.5
q-11 4 -17 -10.5t-15 -14.5l-23 -25q-7 1 -13.5 -5.5l-12.5 -12.5q-10 -3 -33.5 -18.5t-29.5 -18.5q2 -7 5 -13q3 -1 4.5 -2.5l2.5 -2.5l-3 -3q2 -1 11 -3.5t21 -15t17 -14t20.5 -9t21.5 -15.5q7 1 16.5 -7.5t15.5 -8.5q2 -3 9 -8t8 -9q7 -7 13.5 -12.5t12.5 -6.5
q3 -3 13.5 -16.5t18.5 -17.5q-4 -13 10.5 -19.5t14.5 -15.5q8 -3 12.5 -14.5t5.5 -14.5l-7 -6q1 -3 10.5 -14t6.5 -19q-18 -3 -20 -8z" />
    <glyph glyph-name="equal" unicode="=" horiz-adv-x="494" 
d="M446 417l-3 -10q-3 -3 -6 -11.5t-7 -10.5l2 -13l-4 -10q-10 -7 -8 -19q-11 2 -15 -5q-20 4 -34 6.5t-20 9.5q-11 -2 -21 -3l-21 -3q-14 0 -26 6l-3 -1q-6 0 -13 5q-5 -2 -15 0.5t-12 2.5q-7 0 -11 -6l-10 2q-1 -1 -9.5 -3.5t-18.5 -5.5q-2 0 -10.5 5.5t-13.5 0.5
q-4 4 -18.5 6t-18.5 10q-9 6 -17 12q-2 4 -11.5 8t-12.5 9l-7 2l-3 8l2 20q4 10 20.5 13.5t21.5 8.5q15 0 46.5 9t33 10t9 1.5t12.5 1.5l54 -2q4 -3 14.5 -3t15.5 -4h10q14 0 20 -4l64 -2l3 -1q9 0 28 -3t29 -3l17 -4v-13q3 -8 6 -8v-5q-8 -4 -25 -4h-14zM483 197
q-10 0 -14 -5q-3 0 -9.5 -6.5t-9.5 -7.5l1 -5q0 -3 -6 -7t-4 -10q-11 -11 -22 -15.5t-22 -4.5q-21 2 -34 2q-8 0 -11 -10l-56 9l-5 2q-4 0 -21.5 -3.5t-20.5 -2.5q-13 1 -19 1q-5 0 -8 -3l-4 -1q-6 0 -15.5 2.5t-13.5 2.5q-10 2 -20 5q-40 17 -80 35q-12 0 -12 8l1 3
q0 14 5 31q6 3 20 5t30 5q3 3 12.5 4t12.5 4l4 -1q3 0 9.5 4t11.5 3q6 2 19 3t18 2q9 -2 24.5 -3t31.5 -1h31t29 1q3 -7 12 -2h7q16 0 49 -4t50 -4q4 -3 16 -3t17 -4q8 0 17 -9l2 -15q-5 -5 -23 -5z" />
    <glyph glyph-name="greater" unicode="&#x3e;" horiz-adv-x="492" 
d="M481 265q-2 1 -11 -9t-11 -8q-57 -51 -93 -83t-41 -47q-9 -5 -15 -8t-10 -9l-12 -3l-1 -9q-5 -2 -10.5 -7t-11.5 -11h-10l-14 -11l-7 2q-14 -23 -30 -15q-5 -4 -14 -19t-16 -19l-22 -17l-18 18q-2 -1 -13.5 4.5t-13.5 5.5q-5 7 -9.5 13t-7.5 9q-3 17 60.5 102.5
t77.5 92.5l18 30q19 6 27.5 17t11.5 13l-7 17q-2 0 -13.5 13t-22.5 17t-11 14l-10 3l-13 16q-2 7 -22.5 36.5t-21.5 35.5l-5 8l-8 5q-4 11 -14.5 14.5t-16.5 10.5l1 7q0 10 -11.5 16.5t-13.5 16.5l7 17q-1 5 9.5 12.5t11.5 8.5q2 0 16 18q4 2 9 4l121 -91q32 -22 65 -43
q26 -19 65 -53l24 -11q1 -5 3.5 -8.5t6.5 -7t19.5 -23.5t16.5 -20q1 -7 18 -21t17 -23z" />
    <glyph glyph-name="question" unicode="?" horiz-adv-x="516" 
d="M518 536q3 -5 3 -10q0 -10 -5 -19t-11 -19l-2 -3q0 -17 -8 -20v-4q0 -10 -6 -12v-7q-4 -1 -9 -7t-9 -7l-6 -10l-12 -7q-6 -9 -19 -7q-1 -6 -14 -9l-4 1q-5 0 -9.5 -8.5t-10.5 -8.5l-6 -8l-41 -16q-7 -12 -19.5 -23.5t-25.5 -12.5l1 -5q-4 -1 -6 -7.5t-8 -6.5
q-2 -3 -11.5 -8.5t-10.5 -10.5l-7 -2v-4q0 -1 -2 -6.5t2 -7.5q-3 -3 -4.5 -6t-1.5 -4l3 -5l3 -15l2 -2l-6 -4l3 -14q-4 -1 -5 -6t-5 -5l-12 -7q-8 1 -12 6t-4 18q-3 7 -6 15l-5 6q2 3 -1 8t-2 11.5t-2.5 8.5t-6.5 17.5t-5 17.5l-3 24q2 16 4.5 33t7.5 18l-3 5l8 13q3 8 6 17
l9 11l-1 3q0 2 4.5 4t2.5 5q8 18 27 31q0 7 8 13q5 10 13 8q3 13 13 21l-1 3q0 2 5.5 5.5t3.5 7.5q6 4 12.5 18t12.5 15l1 12q9 6 5 11q6 7 12 22t8 25t5 21q2 12 -2 20l2 10q-1 2 -10 12t-7 14q-6 11 -12 18t-12 5q-1 4 -8.5 4.5t-9.5 2.5l-9 1q-8 0 -30 -4t-26 -5t-9.5 -6
t-11.5 -4l-8 -4l-11 1l1 -4q-7 -6 -9 -6l-8 -11l2 -4l-14 -24q5 -1 5 -8t4 -10q1 -4 3.5 -8t6.5 -8q4 0 7 -8q-5 -3 -12 -7t-16 -4q-1 -4 -10 -4q-12 0 -24 3.5t-13 11.5q-7 3 -11 11l1 3q-1 3 -2.5 5t-5.5 5l-5 12l-8 6l-3 13q5 7 18 32t35.5 38.5t45.5 19t49 12.5h11
q24 0 48.5 -0.5t48.5 -5.5q16 -6 39 -15.5t30 -20.5q7 -5 15 -10q5 -1 11.5 -5t14.5 -9q2 -3 6.5 -7.5t11.5 -8.5l3 -10q4 0 5 -5.5t6 -4.5q9 -6 11 -18q11 -12 17 -18l-1 -4q3 -9 7 -18q7 -8 7 -21q-4 -7 -4 -19t2 -26.5t1 -15.5zM331 68q2 -11 -5 -27.5t-8 -22.5l-8 -6
q-3 -8 -15 -16q-3 2 -10 -1t-10 0l-8 -3q-42 0 -53 11t-17.5 19t-7.5 17.5t-3 12.5q4 3 -2 13q3 9 7.5 22t4.5 16q5 1 7 6l4 10q5 2 10.5 8t8.5 6l2 2h24q15 0 22 2l7 -2h4l18 -3l18 -18l3 -11q5 -7 10 -13l2 -7zM270 86q-4 -12 -4 -19l1 -5l2 5l18 5q-2 5 -7 8z" />
    <glyph glyph-name="at" unicode="@" horiz-adv-x="924" 
d="M926 409l2 -13l-5 -12l3 -9l-2 -18q2 -5 -1 -12t-2 -10q-4 -2 -2 -7.5t-1 -6.5v-4q-2 -4 -5.5 -9.5t-3.5 -9.5l1 -5q2 -2 4 -8.5t4 -8.5q0 -9 -1.5 -17t-12.5 -15q5 -3 5 -10q-4 -13 -7 -26q-2 -2 -2 -10v-11q-2 -6 -8 -6q0 -5 -8 -12t-8 -13q-8 -10 -16 -13l-1 -10
l-5 -5q0 -6 -8 -9t-8 -10l-21 -21q-10 -4 -20 -7q-10 -17 -27 -14q-3 -7 -19.5 -9.5t-29.5 -2.5q-3 0 -37 19t-39 24l-6 -6q-2 -4 -5.5 -7.5t-6.5 -0.5q-12 -6 -23 -11l-5 -6l-10 2q-3 -10 -32 -13t-52 -5l-7 -3q-2 0 -11 3.5t-14 2.5q-57 30 -92 48t-60 66q-13 21 -23.5 39
t-12.5 30q-4 2 -10 25t-6 43l-2 6v15q2 3 2 11q0 19 3 45t24.5 65.5t60.5 77.5q5 1 19.5 16t20.5 17q10 7 22 15l27 18q5 0 11 4t9 4q5 6 11 6q36 0 69.5 -24.5t55.5 -40.5q4 0 10 -5t10 -5l3 -6l8 10l14 8l2 7l-7 13q11 9 17 9q12 0 8 -13l12 -5q3 -13 8 -16q6 0 13 -8.5
t10 -9.5q1 -2 8 -11.5t5 -16.5q5 -2 7.5 -8.5t5.5 -11.5q0 -12 3 -20.5t8 -19.5q6 -4 6 -20q0 -6 3 -20t5 -21l-4 -3q6 -7 6 -21q-1 -12 -1 -24q-3 -2 -3 -10q1 -8 1 -10q-2 -8 -3.5 -15.5t-5.5 -14.5q-9 -2 -6 -17q-3 -7 -6 -15t-2 -15q-4 -6 -2 -20l-13 -13q-2 -4 -2 -12
v-12l-9 -5q0 -17 7 -18l3 -15q5 -2 12 -4.5t12 -2.5q11 0 38.5 30.5t35.5 58.5t19 69q0 12 2 31t5 29q-5 8 0 19q0 23 -5 46.5t-11 54.5q-7 10 -10 24.5t-5 28.5q-15 28 -26 45t-31 28q-29 30 -45.5 47.5t-24 19.5t-11.5 6q-10 3 -19 6q-4 0 -9.5 2t-7.5 1q-6 6 -26 12.5
t-28 10.5l-12 -4q-5 3 -11 3q-7 0 -17 -4l-6 2l-6 -2l-22 2q-9 1 -26.5 -5t-21.5 -6q-1 -4 -5.5 -5.5t-8.5 -0.5q-6 -13 -29.5 -22t-24.5 -11q-5 1 -10.5 -4t-9.5 -5l-21 -16l-10 -5l-4 -7q-4 -1 -9 -5.5t-7 -5.5l-4 1q-3 0 -9.5 -4.5t-9.5 -4.5q-10 -7 -13.5 -10.5
t-3.5 -8.5q-11 -2 -12 -11q-5 -13 -14 -11l-7 -11q-7 0 -19.5 -24t-19.5 -38t-13 -16.5t-7 -5.5q1 -1 2 -7q0 -4 -4.5 -11.5t1.5 -13.5q-9 -11 -5 -19q3 -2 3 -10q0 -17 -5 -25v-20q0 -9 4 -14q0 -19 -3 -28q11 -13 11 -30v-12q0 -15 7 -21l9 -35q2 -3 3 -13.5t6 -12.5
q1 -4 6.5 -20t5.5 -17q3 -3 13.5 -21t20.5 -22q3 -11 13.5 -19.5t20.5 -16.5q15 -6 16 -14q6 -5 10.5 -9.5t3.5 -10.5q2 -3 11 -7.5t8 -12.5l10 -3q2 -6 13 -12t12 -7l14 -4q21 -13 34 -19t17 -5t35.5 -8.5t51.5 -14.5q26 0 70.5 6t74.5 12q5 6 14.5 8t18.5 4q38 19 76 37
l7 -4q0 -9 -6 -15q-3 -10 -6 -16.5t-9 -10.5l-4 -9l-9 -5l-4 1q-6 0 -15.5 -11t-14.5 -12q-8 -7 -15 -14q-12 -4 -36 -11t-35 -7q-8 0 -11 3l-12 -5h-10q-10 2 -12 -10l-4 1q-23 0 -30 3l-12 -2q-11 -6 -15 -1q-1 0 -21 2t-21 1q-6 5 -19 -1q-12 2 -20.5 3.5t-14.5 0.5
q-3 1 -12.5 2t-13.5 7q-1 -1 -3.5 -1.5t-5.5 -1.5q-5 0 -12.5 4t-13.5 7l-3 -1q-10 4 -20 7l-25 9q-36 20 -71 39q-53 41 -80.5 82t-63.5 117q0 5 -9.5 27t-9.5 33q0 8 -3 25t-3 25q0 10 2 15q0 25 2 83t2 62l1 13q2 3 2 10q0 16 3 19v5l3 22l12 28q5 3 6.5 12t4.5 12
q6 14 19 32t29 41l28 24q25 29 59 45l74 30q37 12 72 24.5t37 14.5q11 0 37.5 6.5t35.5 6.5q2 -2 10 -3t15 -1q2 -2 12 -2q7 -1 8 -3q21 -2 63 -17t53 -18q9 1 12 -5l20 -6q2 -2 9 -3t10 -4q5 -1 11 -5t10 -7q6 0 15 -9.5t14 -9.5l8 -11h10q15 1 27 -14q10 1 19.5 -15.5
t14.5 -16.5l6 -6l-1 -11q4 -2 7 -7.5t5 -9.5l-2 -9q2 -3 7 -8.5t6 -10.5q7 -1 16 -16q-3 -3 -3 -10l1 -9q5 -7 6 -21t1 -16q1 -5 4 -11.5t8 -11.5q-3 -4 0 -11t0 -10l3 -17zM608 208q-4 6 -7.5 19.5t-4.5 17.5l1 9q0 8 -2.5 21.5t-2.5 16.5q-2 36 -3 72q0 20 6 58t6 44l4 15
l-5 10q-6 2 -24.5 13t-25.5 11l-5 -2q0 -9 -8.5 -13.5t-16.5 -8.5q-4 -14 -22 -28.5t-22 -19.5q-4 1 -7 -1.5t-8 -10.5q-11 -3 -25.5 -34.5t-20.5 -53.5q-11 -13 -12 -20t-4 -19q1 -8 3 -17t1 -15q-3 -5 1 -14.5t7.5 -21t12 -34.5t21.5 -36v-5q7 -8 19.5 -23.5t15.5 -21.5
q12 -4 22 -9.5t23 -5.5l29 1q11 5 23 11q15 3 27.5 16t21.5 22v4q0 3 -9 24t-9 29z" />
    <glyph glyph-name="A" unicode="A" horiz-adv-x="590" 
d="M582 202l2 -2q-3 -12 3 -27v-15t-3 -9l-4 -8l-4 -4q1 -12 1 -18q0 -11 -8 -12q1 -6 -7 -16l-4 -17q1 -11 -13 -19l6 -8l-1 -16q4 -9 4 -13l-1 -16l-2 -3v-12q0 -7 2 -10q-3 -4 -10 -4l-8 1q-4 6 -7.5 13t-10.5 29q0 24 -14 48.5t-29 45.5l-8 12q-21 50 -32 77t-24.5 43.5
t-17.5 31.5l-5 15q-10 2 -19 4l-10 -3l-11 -5h-36q-2 2 -7 0t-8 4l-11 3q-9 3 -19 6t-18 1q-3 2 -13 2q-19 0 -23 3l-10 -5l-3 -5l-5 -3l-9 -26q-7 -1 -9 -13l1 -5q0 -5 -2 -9l-4 -8q-3 -2 -6 -9t-6 -10l-3 -11l1 -4l-4 -16q-7 -9 -7 -28l-5 -13l1 -6q-3 -16 -4 -25
q-8 -10 -7 -21l-5 -14q-3 -15 -5 -30q-7 -14 -10 -17q-3 -13 -5.5 -19t-8.5 -6l-9 4l-7 8v14q-1 10 2 28.5t9 21.5l-1 6q0 9 5 13q4 53 9 106q4 10 9 20q-4 6 -2 11q0 10 1.5 21t5.5 14l5 14l3 35l-8 3l-9 2q-2 3 -7 3h-7q-5 0 -8 4q-5 2 -9.5 3.5t-4.5 4.5q0 5 9 8t20.5 6
t19.5 3q6 0 8 -1q2 9 3 19t3 12v10q4 12 8 25l12 22l20 33q0 9 10.5 33.5t18.5 40.5q4 1 5 9t6 9l12 22.5t12 19.5q0 9 5 13.5t10 7.5q8 43 33.5 80.5t37.5 37.5q5 0 15 -8.5t18 -15.5q6 -11 15 -25.5t10 -15.5t5 -8t8 -6q9 -5 16.5 -11.5t16.5 -16.5t16 -12l7 -9
q0 -6 8 -12.5t9 -10.5q6 -2 15.5 -14.5t12.5 -21.5l8 -4q4 -9 13.5 -22.5t13.5 -14.5l17 -25q2 -15 10 -23v-7q2 -8 -4 -11l-3 -12l2 -11q-5 -2 -5 -14l5 -20l-1 -5q0 -2 4.5 -8.5t2.5 -11.5q3 -15 7 -18q4 -12 4 -15q-2 -6 -2 -18q0 -3 2.5 -14.5t2.5 -14.5v-4
q0 -4 2.5 -7.5t4.5 -5.5l-1 -17l4 -6q-4 -4 -0.5 -12.5t3.5 -10.5q0 -3 -3 -13t-4 -13zM347 485q0 5 -3 12t-3 13l-19 35q-6 0 -8 -7.5t-3 -10.5l-6 -4q-4 -13 -8 -15l-3 -10q0 -4 -11 -16.5t-13 -16.5l-4 -4q-4 0 -4 -5t-2 -6l-2 -4q-3 -4 -5 -8q0 -8 -2 -15.5t-3 -11.5
l2 -2l-5 -34l-2 -10l1 -6q8 1 18 2.5t15 5.5l5 -8l12 11q10 0 30 5.5t30 3.5q9 0 18 1v7q2 17 -7 52t-18 46z" />
    <glyph glyph-name="B" unicode="B" horiz-adv-x="594" 
d="M595 191v-10q-1 -1 -0.5 -6t-6.5 -12v-14q-7 -12 -13 -22.5t-6 -17.5l-12 -5l-4 -7l-8 -5l-7 -14l-8 -6q-4 -1 -8 -6t-5 -5q-2 -4 -17 -9l-4 1q-8 0 -13 -15l-39 -19l-13 -2l-7 -6l-5 1l-3 -5l-7 1l-2 -5l-5 3q-1 -3 -14 -4.5t-23 -1.5h-23q-19 0 -36 3q-9 -3 -18 2
l-22 1q-6 0 -18 3t-19 7q-5 -1 -10.5 3t-8.5 4q-19 6 -28.5 8.5t-21.5 8t-37 25.5t-28.5 28t-3.5 22q0 8 -3 11q-4 5 -1.5 6.5t3.5 2.5l9 -5l6 -10q5 0 9 -4t9 -10t11 -11l25 -17l1 9q-4 23 -12 43v4q-4 10 -3 17l-6 25l1 6q0 19 -4 25q6 14 1 19q2 9 -3 32v4q-3 11 -1 14
l-3 14l3 9q-5 7 -5 22q0 12 4 16q-2 3 -2 4q-1 -1 -2.5 7.5l-4.5 25.5v13l1 5q1 7 2.5 11.5t0.5 7.5l5 16l-2 7v16q4 20 2 32l2 4q-3 11 -3 26q0 14 1 28t2 27q2 11 5 22l13 37q2 1 3.5 7t4.5 6q6 21 7 27q-8 2 -11 2l-16 -2l-4 -1l-4 2h-19q-10 4 -20 9l-11 6l-4 7
q-1 4 1.5 6t5.5 3h5l17 3q3 2 9.5 3t9.5 3l8 2q24 4 49 9q12 7 34 11t40.5 5.5t26.5 2.5l9 1q24 0 48 -3t34 -4l16 -3q8 -3 17 -6q6 -4 12 -7q18 -8 39.5 -17.5t28.5 -18.5l2 -4q7 -4 26 -20.5t18 -20.5l15 -14v-5l9 -7l2 -6l10 -8q4 -14 6 -31.5t2 -34.5l1 -7l-9 -14l4 -7
l-15 -10l1 -3q0 -14 -4 -18q-4 -9 -3 -15q-5 -8 -9 -16q-12 -10 -13 -14q-7 -4 -15.5 -8t-9.5 -4l-2 -6l-3 -10q-14 -2 -21 -9q-5 -3 -12.5 -5.5t-13.5 -1.5l-2 -11q1 -4 12.5 -5.5t22.5 -1.5l16 -8l8 -3q6 -11 16 -20.5t20 -18.5l1 -5q4 -1 8.5 -7t8.5 -17t11 -32
q2 -1 3 -7t3 -7l3 -10q3 0 4.5 -6t3.5 -7q0 -8 4 -18zM404 682l-7 -1q-9 0 -29 4t-30 4t-19.5 -0.5t-18.5 -0.5h-12q-2 -2 -7.5 -3.5t-7.5 -3.5q6 -17 10.5 -46t4.5 -32q4 -5 4 -14q0 -4 -2 -12q8 -5 8 -23l-5 -13l1 -6l-4 -9v-24.5t5 -23.5l4 -29l-2 -7v-8l-3 -1l1 -37
q17 -2 25 4l3 -1l41 3q15 -1 21 -1q10 0 17 3q5 -2 12.5 2.5t10.5 4.5q16 13 33 26q4 0 13.5 9.5t8.5 14.5q23 22 23 55q0 51 -24.5 97t-74.5 69zM518 218q-4 9 -7 18l1 3q-9 14 -9 27q-5 7 -25.5 20.5t-23.5 18.5q-8 5 -15.5 16t-11.5 16l-23 3l-2 -2l-8 2l-7 -1
q-5 2 -17 3t-18 3l-11 -4l-6 6l-5 -4q-3 1 -11 2t-12 0l-7 -7l2 -2q-2 -8 -2 -18v-15v-11l-5 -14l1 -13q-9 -9 -9 -18q-2 -8 -10 -18t-14 -7q-16 -12 -20.5 -19t-4.5 -24q0 -13 -17 -19l-1 -14q-3 -5 -6 -16t-6 -15h-6l-3 -4l5 -13l-6 -8q1 -2 1 -10v-9q12 -5 40 -13t48 -15
q6 1 13.5 1h11.5h33l4 -3q43 0 72 21.5t84 75.5q4 15 9 30q3 3 3 10.5t2 9.5l2 14z" />
    <glyph glyph-name="C" unicode="C" horiz-adv-x="548" 
d="M574 155q-8 -5 -9 -11l-7 -7q-3 -9 -5 -18l-7 -11l4 -3q-1 -6 -8.5 -19.5t-12 -18l-10.5 -10.5l-3 1q-6 -2 -11 -4q-3 -7 -11 -4l2 -7q-1 -2 -6 -3t-7 -4l-3 2l-12 -4q-2 -2 -5.5 -2h-4.5l-7 -3q-10 3 -13 -6q-2 0 -7 -1.5t-7 0.5q-6 -6 -12 -11l-3 3q-1 0 -5.5 -4
t-8.5 -2l-19 -5l-3 1q-7 -3 -8 -4q-3 1 -9.5 -1t-9.5 0q-6 1 -18 1q-7 0 -15 -3h-10q-13 0 -21 2q-12 5 -19 7q-4 -1 -9 1t-9.5 3.5t-10 5t-9.5 10.5l-5 -1l-20 4q-31 21 -61 43q-17 16 -35 45.5t-21 39t-6 13.5q-2 9 -3 19l-4 12q-3 12 -5 24l-5 11q0 15 -7 53t-7 49
q0 10 -2 14l-2 29q0 11 2 39t2 30l2 7l3 9q0 42 40 100.5t87 110.5q10 8 14 14q21 14 43 29q2 3 6 4.5t10 3.5l21 9q1 2 8 2q5 2 6 4q6 -4 19.5 -5t25.5 -1q11 0 33 -4t32 -4q14 0 35 -6t25 -16q-1 -4 4 -5t6 -2q8 0 24.5 -12.5t15.5 -20.5q7 -9 7 -19l-1 -7l1 -6l-7 -14
q-6 -5 -18 -5q-6 -6 -14 -5l-5 -5l-2 -2l-3 2q-2 11 2 17v4q0 9 -8 20.5t-9 12.5l-9 4q-4 6 -11 8.5t-15 2.5q-4 6 -12 4q-3 -3 -10.5 -3.5t-10.5 -0.5q-2 -8 -14 -8q-4 0 -10.5 -5t-9.5 -5q-7 -6 -13 -11q-8 -4 -11.5 -3.5t-4.5 -8.5l-2 -5l-3 -6q-12 -5 -16.5 -13
t-9.5 -12l-12 -31l1 -5q0 -5 -3 -12t-9.5 -18.5t-11.5 -19.5v-37q-6 -4 -10 -14.5t-5 -13.5v-22q0 -5 -1 -11t-1 -9q-5 -5 -3 -10l3 -16q-1 -10 1 -25t2 -17q2 -4 2 -13q0 -8 2 -10q0 -7 1.5 -19.5t3 -28.5t7.5 -21q0 -6 7.5 -18.5t13.5 -21.5q1 -8 9 -20t8 -21q5 -2 9.5 -7
t8.5 -9q0 -6 6 -10l7 -11q6 -8 13 -15q3 -5 16 -9.5t16 -5.5h4l29 -6q6 2 14 -0.5t10 -2.5l9 3q32 7 54.5 29.5t44.5 60.5q-6 6 -12 13l2 6v16q6 8 11 11.5t12 1.5l5 3l16 -4q4 -8 9 -15l3 -7v-19q0 -19 -5 -32z" />
    <glyph glyph-name="D" unicode="D" horiz-adv-x="595" 
d="M85 22q-8 3 -14.5 4.5t-21 20t-16.5 32.5q-3 5 -3 18q0 16 6 24q4 4 6.5 2t3.5 -2q5 -12 11 -23q2 -10 10.5 -15.5t17.5 -10.5l13 -3l4 5l-1 14q-2 2 -2 11q0 6 -3 8l1 3q0 21 -4.5 59.5t-4.5 45.5q-2 13 -3 20t-1 11l1 5q-1 7 -1.5 15.5t-1.5 28.5t-3 32l2 8l-2 3v99
v130q1 3 1.5 6.5t0.5 6.5q0 6 3 8l-1 3q2 10 4 21l4 26q-2 4 -11 4q-6 1 -7 3q-8 2 -21.5 8t-22.5 11l-4 8q-2 8 -2 12l3 4h11t9 -3l26 6q12 -3 19.5 2t16.5 16q14 11 29 13t27 3q13 0 26 -3t24 -7q2 2 13.5 3.5t22.5 1.5q14 0 36.5 -2.5t28.5 -6.5q11 -4 17 -4q7 -6 15 -4
q7 -3 16.5 -6t11.5 -8l13 -7q0 -2 7 -3l4 -3q38 -26 77 -52q6 -8 12 -7q1 -4 8.5 -8.5t8.5 -10.5l9 -11q3 -8 11 -14.5t8 -12.5q4 0 9 -6t7 -8q1 -4 6.5 -11t5.5 -12q7 -4 9.5 -11.5t6.5 -9.5q0 -3 5 -7t5 -8q0 -8 5 -15q3 -15 3 -24q0 -5 5 -8q1 -4 2 -13t1 -25q2 -3 2 -10
v-15q-3 -25 -5 -43t-8 -31q-5 -1 -5 -13v-11q0 -5 -5 -10t-6 -8q-4 -1 -5.5 -7t-4.5 -8q-4 -9 -7.5 -17.5t-4.5 -12.5l-5 1q-3 0 -7.5 -6t-6.5 -7q-1 -7 -15.5 -27.5t-19.5 -19.5q-3 -1 -5 -8.5t-6 -8.5l-10 -20q-5 0 -9 -9.5t-10 -9.5q-4 -3 -6.5 -8.5t-4.5 -9.5l-12 -10
q-3 -6 -13.5 -6t-13.5 -2q0 -7 -8.5 -11.5t-8.5 -9.5q-2 -4 -18 -7q-3 -4 -5.5 -5t-4.5 2q-12 -12 -31 -20h-5l-6 -3h-4q-6 0 -16 -4q-5 1 -14 1q-12 0 -18 -1l-4 -2l-4 3l-9 -5l-5 1l-2 -2h-32h-16q-6 0 -12.5 3t-15.5 8l-10 -11q-4 -6 -9 -14t-12 -8q-5 0 -10 5l-8 16
q-11 13 -37 21zM514 396q-2 2 -3 12t-1 16q-4 14 -4 21q-15 39 -22 55t-14 24q0 21 -17 30q-34 54 -70.5 71.5t-54.5 29.5q-3 0 -7.5 3t-7.5 1l-10 3h-12q-11 -6 -35 -6l-4 -4q2 -3 3 -27t1 -26q-4 -4 -6 -14.5t-2 -18.5q1 -4 3.5 -9t6.5 -11q0 -6 5 -13.5t3 -13.5l4 -8
q-5 -7 5 -12l-1 -8q2 -4 2 -13q0 -15 2 -19l1 -12l-3 -15q2 -17 -8 -24q-2 -24 -3.5 -36t-6.5 -21v-48q1 -2 7.5 -16t6.5 -19l-1 -19q-7 -12 -4 -19q-5 -12 -9 -24t-2 -15l-6 -12t-8 -4l-3 -14q2 -5 2 -15q0 -8 2 -11l-9 -11q-5 -1 -8.5 -6.5t-5.5 -13.5q-3 -4 -11 -10.5
t-12 -12.5q-6 1 -11 -4t-10 -9q3 -1 11 -0.5t18 1.5q9 0 14 -4q7 2 18.5 5t16 4.5t13.5 3.5t20 5l20 4q6 3 19 3q6 -5 7 -6l4 6l4 -1q8 1 17 3q14 12 22 14l8 9q4 2 9 8t10.5 12.5t8.5 12.5l6 -1l-1 6l27 39q17 15 29.5 44.5t18.5 45.5q0 6 2 11t6.5 15.5t12.5 26.5l2 11
q-3 7 -3 25t-2 25z" />
    <glyph glyph-name="E" unicode="E" horiz-adv-x="497" 
d="M93 3h-17q-3 0 -14.5 3t-13.5 5l-10 2l-16 -2l-10 5v14q3 5 8 12t15 7q6 5 15 7l18 4q9 4 18 9l8 6l1 13q0 24 -5 42q0 13 -3 18q-5 45 -6.5 51.5t-8.5 23.5q0 23 -1 69t-1 70v28q0 15 -0.5 29.5t-2.5 19.5v17q0 19 4 58t4 59l2 2v6q0 15 9 47t9 43q5 14 19 42.5t16 34.5
q4 2 7.5 6.5t11.5 18.5q7 0 15.5 -6t13.5 -9t11.5 -7.5t13.5 -11.5q3 -1 6 -8t5 -7l6 4q24 6 53 9.5t57 3.5q15 -3 30 -5q18 -11 58 -15t79 -4q7 -1 19.5 -5.5t15.5 -8.5l-1 -16q-17 -4 -25 -5.5t-14 -0.5q-9 -3 -18.5 -5.5t-20.5 -5t-23 -4.5q-11 0 -11 -10q0 -6 -8.5 -15
t-8.5 -14q-6 1 -15 -6q-12 -2 -23 -4l-6 2q-12 -1 -24 -1q-9 -6 -17 -11q-20 1 -31 1q-12 0 -18 -1q5 -6 7 -17t2 -21q4 -7 2 -13v-23l-8 -9l1 -27l-2 -28q-4 -3 -4 -9q-1 -4 0.5 -8t2.5 -5.5t1 -10.5q0 -6 4 -7q13 1 26 3q7 0 22 -5t19 -5q4 -2 13 -3t13 -4q14 0 21 -4
q8 1 18 -0.5t15 -1.5l19 3q6 -2 15 3q9 1 14 1q8 -2 8 -9q-2 -2 -1.5 -6t0.5 -6q0 -5 -17 -14q-4 -9 -18 -12t-15 -3h-4q-6 1 -13 -6l-15 3h-6q-7 -13 -16.5 -17t-22.5 -4h-11q-8 0 -11 4q-18 3 -36 7q-6 -3 -12 -7t-6 -10q1 -8 2 -14.5t3 -9.5v-32l-3 -22l3 -16
q-2 -6 1 -16t2 -15q4 -6 6 -17.5t2 -20.5l-3 -30q-7 -11 -10.5 -15t-7.5 -6l-9 -10l-7 1q-5 2 -7 -5q5 -9 0 -14l6 -10q14 -1 39 -9t36 -11h4q10 -2 20 -3q14 -4 41 -8t42 -4q10 0 27 10.5t30 10.5q9 -1 18 6l4 -8l-3 -12q-8 -8 -13.5 -13t-12.5 -4q-3 -6 -6.5 -12.5
t-9.5 -7.5l-3 1q-6 -5 -11 -9l-11 -3q-4 -9 -16 -9q-6 0 -16.5 2.5t-11.5 2.5q-12 -4 -23 -7q-2 -3 -6.5 -1.5t-9.5 2.5l-5 -3l-8 -5q-4 -9 -15 -7q-9 0 -18 1.5t-12 6.5l-11 1l-7 3q-7 1 -14 1q-5 4 -30 6.5t-30 3.5q-7 -1 -15.5 3t-15.5 2l-7 -2l-4 -4q-5 -22 -26 -22
q-16 4 -21.5 6.5t-5.5 11.5z" />
    <glyph glyph-name="F" unicode="F" horiz-adv-x="475" 
d="M492 700q-2 -4 -11 -9t-10 -12h-8q-2 -6 -18 -9q-1 -3 -7.5 -5t-6.5 -6q-9 3 -12 3q-6 -4 -15 -4q-3 0 -5.5 2t-6.5 7l-1 -10q-2 -3 -6.5 -3h-6.5l-8 -3q-7 -1 -11.5 -3.5t-9.5 -4.5l-55 8q-8 4 -16 8.5t-11 4.5l-5 -3q-3 -8 -5 -14t0 -11q-4 -2 -5 -8.5t-3 -8.5
q2 -8 4.5 -16.5t1.5 -14.5q3 -10 6 -17.5t6 -14t2 -13.5v-11q-2 -3 -3 -15t-1 -16q0 -8 -3 -11q1 -4 -1 -10t-2 -9l-2 -8q18 0 50.5 2.5t38.5 2.5h12q8 0 11 -2q8 2 29 -5.5t35 -7.5q6 0 18 2l10 -3l1 -4q0 -4 -4 -10q-3 -1 -11 -12t-16 -5q-4 -5 -17 -5q-5 0 -14.5 1
t-11.5 1q-9 -7 -14 -7q-4 -2 -13 -2q-7 0 -15 1t-15 2q-4 -2 -12.5 -14t-19.5 -11q-11 -10 -26 -7l-16 2l-5 -4q-4 -2 -4 -8q0 -5 1 -10q-4 -9 -7 -17l2 -5q-1 -4 -1 -7.5v-4.5q0 -5 3.5 -11.5t3.5 -12.5l-6 -31l3 -21q0 -12 -5 -18q-2 -8 -3 -16q-2 -3 -3 -13t-16 -10
q0 -7 -7 -7q-3 -6 -3 -14t1 -11q-9 -7 -6 -14l-2 -7l1 -6q-1 -6 -10 -6v-10q-1 -7 -2 -8v-25q-7 -21 -12.5 -34t-10.5 -12q-3 -8 -5 -15q1 -5 -10 -15.5t-15 -10.5l-3 1l-3 51q-3 4 -3 12t-2 11l1 4q0 12 -4 27.5t-7.5 30t-6.5 21.5q0 8 -3 26t-3 28l-2 11q-7 9 -7 28l-3 9
l-2 14q-3 3 -3 10.5t-2 10.5v21q0 13 -2.5 39t-2.5 32v9l-3 5l-2 100q0 16 2 28t5 26q0 10 3 27t3 25l14 47l5 10q0 5 3 16t7 23q0 3 3 10t3 11q3 2 4 10.5t6 10.5l10 9q5 0 33 -6t41 -6q15 0 45 2t45 2q24 0 65 -3.5t53 -3.5q2 -2 4.5 -2h5.5l7 -3q4 1 10.5 -1.5t8.5 -3
t14.5 -2t23.5 -1.5q3 -1 6 -4t3 -5q0 -12 -17 -15z" />
    <glyph glyph-name="G" unicode="G" horiz-adv-x="640" 
d="M668 361l-6 -3l1 -3q0 -6 -19 -13t-40 -15q-6 0 -21 -3t-24 -1l-4 -3l-2 9v-93l5 -14q-4 -17 -7 -33l-1 -26l3 -10q-4 -3 -4 -8q0 -8 1 -16q2 -11 0 -17q-1 -4 -10 -14t-7 -20l-15 -27q-4 -10 -7 -20q-7 -9 -11.5 -16.5t-6.5 -18.5q-6 -3 -8 -13t-4 -19q-19 0 -28 31
q-8 38 -11 51h-4q-7 -8 -14 -15t-12 -3l-7 -6q-4 0 -13 -4t-14 -4q-4 -4 -9 -8.5t-9 -3.5q-6 -8 -21.5 -9.5t-22 -3.5t-10.5 -2l-5 2q-22 1 -33 1l-29 15l-7 -1q-29 0 -85 59t-56 88q-1 3 -9 12t-8 17q-18 32 -28.5 57t-18.5 73q2 3 2 12v8l-3 3q1 8 0 18t-2 19l2 14
q0 5 2 17t1 18q6 32 18 69t26 66l15 23q0 17 28 46q32 29 65 59q14 9 16 13q5 4 28.5 15.5t32.5 19.5q11 2 23 4q3 2 11.5 3t12.5 3q4 -1 16.5 1t14.5 2l15 -1q4 -5 13 -1q2 -1 10 -2.5t11 -4.5q7 2 11.5 -2t14.5 -4l6 -3q10 2 33.5 -6.5t30.5 -7.5l6 -11q7 -4 11.5 -6
t6.5 -8q8 -4 16 -22.5t8 -29.5q-5 -13 -9 -25l3 -10l-14 -18l-5 4q-7 3 -12 8t-9 6q-7 7 -11.5 13t-6.5 23l2 5q-14 12 -22.5 16t-21.5 12h-24q-12 0 -18 -6q-5 0 -19.5 -12.5t-15.5 -16.5q-2 -1 -5 -8t-7 -6l-5 -11q-4 -2 -10 -12t-10 -13q-6 -13 -18 -25q-1 -5 -7 -13
t-6 -14q-2 -4 -15 -13.5t-15 -13.5l-24 -92l-9 -4v-15l-3 -8q0 -14 -10 -22v-47q-2 -2 -2 -12q0 -6 -3 -8q-2 -16 5 -28v-10q-1 -4 -2 -23.5t0 -20.5q-1 -5 6.5 -20.5t5.5 -22.5q3 -8 14 -26.5t13 -24.5q7 -4 10.5 -7t3.5 -9l17 -8l3 1q8 -4 17 -8q6 -6 12 -10t12 -3l10 -3
q10 -4 14 -9l6 -1q31 0 58 23t27 56l2 10q-3 6 -5.5 25.5t-3.5 23.5v12q0 7 3 10q-1 9 0.5 17t2.5 14q1 5 0 14t-1 15q0 7 4.5 18.5t4.5 13.5l-5 4h-15q-25 0 -27 7q-10 5 -17 5q-3 0 -13 -2q-14 5 -24 14l-8 16l1 10q9 3 14 3.5t7 -2.5l39 6q1 2 8 3l4 3q5 -1 8 1t7 5
q11 4 28 4l2 3h34h14q13 0 18 -3h16q4 -2 13 -3t14 -3q7 1 15 3q15 0 32.5 -0.5t27.5 -6.5h18q19 0 24 4l3 -8q2 -17 -6 -17z" />
    <glyph glyph-name="H" unicode="H" horiz-adv-x="602" 
d="M594 409l2 -8l-7 -5q3 -2 4 -6.5t1 -8.5q0 -6 -3 -18t-3 -18t3 -12l-7 -2l4 -8l-2 -8l2 -10q-6 -2 -4 -13l-15 -24q-6 -3 -6 -15v-11q-6 -12 -6 -27l-10 -19l-5 1q0 -13 -1.5 -20t-6.5 -16l1 -13l-8 -14v-8q0 -12 -5 -18q-4 -13 -4 -20q0 -9 -7 -14l-1 -12l-9 -12l1 -5
q0 -2 -4 -10t-8 -14q-9 6 -9 24q1 17 1 23q3 6 3 25l-1 14q-10 12 -16 17q-4 20 -8.5 34.5t-10.5 22.5q0 10 -8 22l2 7q-10 12 -10 26q-14 7 -14 17q-4 4 -8.5 38.5t-4.5 47.5l2 16q1 10 1.5 18.5t2.5 13.5l-4 3l-20 -17l-20 -1l-6 2l-8 -2q-7 3 -18 4t-13 1l-12 -1l-3 -2
q-13 0 -30 -3.5t-35 -9.5q1 -7 -0.5 -12.5t-3.5 -12.5q0 -7 4 -16l-2 -29q-2 -6 -0.5 -21.5t3.5 -28.5l-2 -4q1 -4 -1.5 -11t-1.5 -9l-8 -8v-4q0 -9 -13 -20q-4 -15 -6 -33t-2 -35q0 -3 -8.5 -9.5t-8.5 -12.5q-4 -4 -4 -10q2 -10 2 -14l-3 -7l-3 -2l2 -4q-1 -6 -1 -9.5
t1 -4.5q-1 -2 -3 -20.5t-5 -26.5h-7l-2 4l-1 21q0 10 -7 28t-7 27q-4 6 -7 11.5t-9 22.5l1 4l-3 11q-2 12 -6 15q-3 5 -9.5 30t-11.5 29q-1 10 -7 19q-3 11 -5 22l-4 7l-3 14q0 7 -3.5 30.5t-3.5 37.5q0 9 -2 14q1 7 0 16.5t-1 18.5l-1 3q0 21 -2 71.5t-2 54.5l2 40
q3 9 6 17t3 11q6 18 11 26l8 43q1 5 10.5 30t11.5 26l2 7q4 4 10 13t8 11q28 -3 28 -15q4 -5 7.5 -10t3.5 -13q4 -1 8 -8t5 -8l-2 -16q0 -3 3 -11t2 -12l3 -9q8 -8 6 -15q3 -2 4 -9.5t3 -10.5l-1 -3q0 -3 4 -8t3 -8l5 -7l-1 -9q2 -5 1.5 -13.5t0.5 -12.5q-1 -5 -1 -16
q0 -8 -2 -11l3 -10q-5 -7 -5 -14l2 -5q0 -14 5 -20v-9q3 -3 11 -3q4 0 10 2h40q2 -2 8 -2t8 -3l46 -13q9 -3 13 -3l5 3q17 5 23 5l11 -2l4 1q-4 12 -4 29q0 15 5 40t5 32q6 10 8 21v7q0 14 2.5 28t7.5 24l-1 3q0 4 2 8.5t1 6.5l18 46q3 13 3 19q5 12 11 24l7 21h4l13 -4
l4 -10l11 1q1 -12 15 -22q2 -4 8 -11.5t10.5 -16.5t12 -24.5t11.5 -19.5q2 -12 7 -18l-1 -5q0 -11 5 -21q-2 -14 2 -20v-14q2 -2 2 -15l3 -7q-2 -20 5 -27l-2 -17q5 -14 4 -19l2 -5l-2 -4q4 -4 4 -9q0 -3 -2 -9l3 -9l-3 -6l4 -12z" />
    <glyph glyph-name="I" unicode="I" horiz-adv-x="425" 
d="M439 35l-1 -15l-9 -7q-1 -3 -11 -5.5t-21 -5.5q-3 -2 -10 0t-11 -1q-2 1 -6.5 1h-6.5q-6 0 -8 3q-3 -3 -10.5 -2t-10.5 -1q-13 -2 -25.5 -3t-15.5 0q-2 -2 -12 -2q-5 0 -7 -3l-14 -3q-7 0 -10 4q-7 1 -19 1h-14.5t-14.5 -1q-15 -1 -22 -1q-12 0 -18 5q-13 0 -16 5l-5 -2
l-15 7q-8 2 -16 5l-11 6q1 3 1 8.5v7.5q0 9 5 13q2 4 12 4l5 3q5 -1 11.5 1t9.5 2l37 16l4 -1q9 1 19 3q3 3 12 3q7 0 7 5q-5 12 -12 46t-15 67v6q0 5 -3.5 22.5t-3.5 26.5q-1 2 -1 19q0 5 -3 10q0 18 -0.5 37t-0.5 38v9l2 8l-2 5q2 5 2 19t2 20q-3 7 2 18l2 82q0 18 2 34.5
t3 25.5q1 1 6.5 31t5.5 33l-20 6l-13 -1l-6 -1q-6 2 -6 4l-8 3h-5l-33 3q-4 0 -9.5 2t-16.5 9l-4 13q14 14 31 23.5t26 16.5q8 3 17 6q8 8 19 8l5 -1q12 1 25 2q5 6 16 6q8 0 17 -0.5t15 -4.5l86 -5q4 2 13 2l24 -1q4 -4 13.5 -4t13.5 -4q8 -2 17 -4q2 -2 8 -5t7 -6l7 -11
q-1 -5 -14 -5q-5 0 -16 -6t-18 -3l-7 -1q0 -9 -7 -16q0 -7 -4.5 -14t-10.5 -14h-16l-7 -2q2 -7 6 -13t9 -12l10 -24l-1 -5l4 -18q3 -1 4 -4.5t0 -10.5l-3 -4q2 -8 0 -10q11 -13 11 -24q-1 -11 -1 -20q5 -8 5 -13q0 -7 -4.5 -30.5t-4.5 -27.5q6 -5 6 -12l-2 -15q-5 -3 -3 -12
v-4q5 -2 6 -10.5t1 -11.5q-4 -3 -1.5 -7t2.5 -6l-2 -4v-17q0 -12 -1.5 -18.5t-6.5 -8.5q1 -1 3 -20t2 -21q3 -3 2 -10.5t1 -10.5l1 -14v-15q0 -16 -3.5 -22.5t-12 -13.5t-6.5 -15q-1 -4 -9.5 -12.5t-8.5 -14.5q-8 -15 -15 -27.5t-14 -15.5l3 -10q2 -1 6.5 -1h10.5h18.5
t16.5 1q8 0 26.5 -4t24.5 -4q6 2 9 1h16l2 -15q-3 -5 -7 -11t-8 -5z" />
    <glyph glyph-name="J" unicode="J" horiz-adv-x="425" 
d="M430 687l-10 -2l-7 3q-12 -2 -17 3q-8 -8 -13 -1q-6 -7 -12 -14.5t-3 -14.5q-1 -3 -8 -5t-6 -7l-10 -5l-10 2q-2 -4 -9 -6t-11 -5l-7 4l-4 -3l4 -8q-1 -7 1 -14l4 -14v-4l19 -69q1 -2 1 -7.5v-7.5v-14.5t5 -12.5q0 -10 6 -25t7 -18l-3 -23q1 -20 3 -40q1 -2 2 -11t3 -14
l2 -20q-2 -7 -2 -21v-20l-5 -9q5 -13 5 -30v-27q-2 -6 0 -21q-3 -3 -3 -9.5t-2 -9.5v-19l-3 -11q-6 -1 -9.5 -6t-8.5 -12l-9 -2l-1 -8q0 -12 -14 -26q0 -5 -17 -16.5t-18 -17.5q-11 2 -12 -7l-9 -10l-11 -5l-2 -5q-1 0 -18.5 -23t-26.5 -15q-5 -2 -15.5 -6.5t-17.5 -6.5
q-1 2 -6.5 3t-6.5 3l-11 4q-1 -5 -11 -13q-17 0 -24 3q-1 3 -5 3h-6l-5 3l-22 6q-19 8 -41 19t-22 28l-9 8l-5 9l1 4q0 3 -6 12l-8 26q2 16 4.5 26t8.5 21l38 21q4 -2 14 -2h14q6 4 11 4q13 -3 27 -6l4 -26q-9 -6 -13.5 -9.5t-15.5 -3.5q-19 0 -21 4q-3 0 -5 -6.5t-6 -5.5
l-3 -4v-17q0 -9 2 -13q-7 -15 7 -33.5t26 -16.5q11 -6 17 -2l10 -3l12 4q13 0 17 10l19 13q9 15 15.5 24t9.5 12q1 5 6 13t6 11v18q0 4 2 10q-2 3 -3 12t-1 16q2 12 -4.5 42t-6.5 40q0 19 2 63t2 47v21t1 22l-2 2l-3 38v29.5t3 21.5q3 17 10.5 50.5t12.5 42.5l-1 5
q2 11 4 23l4 15q3 12 3 19l-3 5l-29 -8l-5 1q-11 0 -12 -7q-9 1 -17 -5q-7 -3 -14 -5q-4 0 -10.5 2t-12.5 4l-13 -3q-2 0 -9 2.5t-10 -1.5l-5 3q-8 -2 -27.5 9t-20.5 19l2 12q13 12 59 28t65 16q11 0 29 8q6 -1 13.5 -2t12.5 -5q16 -3 24 -3q5 0 23.5 4t19.5 5h24
q44 0 68 -2t47 -10h12h33l11 -10l2 -18q-6 -6 -12.5 -10t-12.5 -3z" />
    <glyph glyph-name="K" unicode="K" horiz-adv-x="477" 
d="M510 5l-8 -3q-5 4 -13 4q-8 9 -15 16t-16.5 13.5t-14.5 11.5q-16 11 -31 26.5t-20 32.5q-4 4 -14.5 11t-19.5 14t-33.5 39t-27.5 46l-26 32l-8 13q-2 1 -4 5.5t-4 5.5l-14 25l-10 15l-2 -19l2 -2l-1 -21q-1 -11 -3.5 -21.5t-8 -16.5t-6.5 -9l-5 -2l-3 -4q-9 1 -10 -3
l3 -16q-5 -23 -9 -45l3 -6q0 -6 -1 -10t-4 -4l-5 -2l-1 -8l-6 -8q-1 -7 -7.5 -22t-12.5 -30q-4 -2 -4 -17q-2 -1 -2 -14q1 -18 1 -21q0 -18 -3 -27l-7 -9q-3 2 -3 14q-2 11 -2 18l-10 70q-2 6 -3 12q-3 5 -8.5 30.5t-6.5 28.5l-2 17l-1 10l-1 8q0 14 -1 17v30q-2 4 -7 21
t-4 23q-3 5 -1 14q-3 6 -6 64t-3 79q0 24 12 87t12 87q1 2 4 19.5t5 25.5l3 16q4 9 7.5 18.5t4.5 13.5l17 29q10 14 19 25t15 13q15 -2 18 -9v-6q3 -6 17.5 -27t14.5 -39l1 -7l6 -24q3 -5 4.5 -13.5t2.5 -13.5l-2 -6l2 -3q2 -13 2 -20l1 -28q4 -6 1 -11q-1 -9 1 -28l-4 -20
l1 -7q10 11 20.5 25.5t23 33t90.5 89t94 74.5l3 -6v-9l-5 -7q-4 -9 -8 -13l-2 -9l-5.5 -11t-3.5 -9q-5 -8 -11 -12q-2 -12 -7 -14l-11 -11l1 -3q-2 -10 -13 -10l-2 -6q-4 -4 -7.5 -12.5t-3.5 -12.5q0 -5 4 -8q-1 -2 -2 -8.5t0 -9.5l-8 -4l-1 -9l-1 -6l-3 -6l-4 -2
q0 -5 -5.5 -8.5t-7.5 -4.5l-9 -10q-3 -5 -5 -9l-7 -10l-24 -15l-1 -4l-10 -10q-2 -6 -10 -16q-1 -5 -8 -9t-9 -6l-3 1q-5 -5 -7 -5q-10 -11 -15 -16l-2 -5l52 -45l2 -6l3 -2q8 -10 10 -11q1 -4 13 -28t15 -25q2 -8 3.5 -8.5t8 -8.5t7.5 -14l5 -4q-1 -4 4.5 -15.5t5.5 -14.5
l-2 -3l3 -1q1 -1 3.5 -4.5t6.5 -11.5q7 -6 14 -15t12 -19.5t11 -13.5q10 -11 19 -22.5t14 -23.5q4 -4 6 -12.5t6 -13.5v-7q5 -7 10 -14.5t5 -18.5l4 -10q3 -6 7 -11l3 -2z" />
    <glyph glyph-name="L" unicode="L" horiz-adv-x="417" 
d="M432 40q-4 0 -8 -6t-8 -6q-1 -2 -7 -3t-7 -5l-10 -7l-6 -12l-11 -6l-8 3q-6 0 -11 -0.5t-5 -4.5q-2 1 -11 2t-12 5l-9 -1q-2 2 -7.5 1.5t-11.5 -0.5l-2 -2h-41q-17 0 -35.5 1t-35.5 4l-4 -2l-5 3q-4 -2 -12 -1t-10 1q-3 3 -11 3q-7 1 -9 3q-6 -2 -16.5 -1t-19.5 2
q-8 0 -12 5q-5 1 -13.5 9.5t-8.5 11.5l3 8l8 -1l10 3q4 -1 9 1.5t7 2.5l1 5l-25 100q-3 12 -5 24l-6 18l1 5q-1 11 -1 22q1 10 1 15t-3 10q-4 24 -5 50.5t-1 60.5v45.5t1 47.5q2 3 2 10v12q1 3 2.5 15t1.5 13l1 3v24q0 18 4 55t4 55q0 17 10 52.5t10 38.5q6 6 14 6l19 -3
l9 -8q0 -3 4.5 -10t4.5 -11q26 -12 39 -34t21 -31q3 -1 4 -9t5 -9l8 -18l-4 -16t-2 -9q0 -4 2 -13t-1 -14l11 -25l-1 -4l4 -18t5 -19q0 -4 -3 -7q6 -7 9.5 -16.5t6.5 -21.5v-17q4 -9 6 -25q-7 -7 0 -12q0 -18 -3 -20l-1 -4q0 -5 3.5 -18t3.5 -14q-6 -2 -6 -13q1 -8 1 -11
l-4 -9l3 -14q-5 -9 -7.5 -17.5t-0.5 -16.5q-9 -14 -9 -23q0 -12 1 -23l3 -10l-1 -12q-3 -3 -6 -15t-3 -18l-6 -4q-2 -1 -3.5 -10t-8.5 -7q0 -5 -4.5 -12t-15.5 -20.5t-13 -20.5l10 -1q7 4 19 2q5 5 16 5.5t15 0.5l6 3h20q1 1 7 2q10 0 21 -1.5t14 -3.5l4 2q20 -3 41 -5
l12 -6l4 1q2 0 8.5 -3t10.5 -1q15 -3 21 -3q5 0 7 3h4q5 -1 17 6l7 -3q4 -7 4 -15q0 -6 -7 -10.5t-8 -8.5z" />
    <glyph glyph-name="M" unicode="M" horiz-adv-x="635" 
d="M622 380l1 -6l-1 -18l-3 -4l2 -10l-2 -28l-1 -5q-1 -9 -2 -10l1 -8l-4 -12l1 -6l-4 -3l4 -6l-1 -8l-1 -6q-4 -12 -6 -16l1 -4q-2 -3 -4 -9.5t-3 -11.5l1 -8l-2 -6q-7 -7 -9 -5q-4 -9 -7 -17q0 -4 -4.5 -7.5t-8.5 -5.5l-3 -8l-5 -5l-1 -7l-3 -1l-1 -13l-8 -5q-2 -3 -2 -11
q0 -5 -8 -10q0 -9 -5.5 -21t-5.5 -14l-4 -4q-1 -6 -9 -31t-8 -29l-3 -2l-4 12q1 6 1 18q-1 20 -1 29q3 10 3 33.5t2 33.5l1 3q0 16 2.5 44.5t2.5 35.5q-1 7 -3 27t-2 73v51.5t1 50.5q-1 4 -1 11v10q0 8 -1 11l-2 18q0 13 -2.5 25.5t-4.5 25.5q-3 -8 -8.5 -25t-5.5 -21l-3 -5
l-9 -27q0 -11 -4 -18l-4 -4l-4 -10q-2 -1 -5 -6t-6 -6q0 -4 -8.5 -18t-13.5 -19l-9 -21l-17 -12l-1 -3q-7 -4 -12.5 -14t-8.5 -16q-18 -19 -24 -41v-4q0 -10 -3 -14l-2 -8l-5 -2l-1 -3l-4 -3l-8 -32l-7 -16l-8 4l-6 15l-10 23q-13 42 -25 84q-42 95 -65.5 151t-27.5 76
l-1 -14l2 -8l1 -15q-2 -25 -4 -51t-4 -30q0 -11 7 -35t9 -35l-1 -5q0 -2 1 -22.5t2 -22.5q-7 -28 -14 -55q2 -9 -1 -16l3 -8q1 -2 2 -3l-3 -5v-19l-7 -16l-5 -3l-2 -5q-4 -1 -6 -14.5t-2 -20.5t-4.5 -25t-4.5 -27l-5 -4l-4 -39l-7 5l-1 -21l-6 1l-4 -1q-3 8 -6 19.5t-3 19.5
t-2 14.5t-3 9.5l1 4q0 28 -29.5 140t-29.5 166q3 8 1 18q3 18 4.5 42t1.5 52q0 13 3 21.5t2 14.5l2 10q1 8 2.5 15.5t22 85t44.5 100.5l10 2q5 -1 10 -9l2 -10l7 -6q4 -10 9 -16q1 -3 2 -12.5t0 -14.5q2 -6 15 -21.5t15.5 -17.5t8 -15.5t6.5 -19.5l4 -7q0 -4 4.5 -13
t7.5 -14q5 -13 11 -26t7 -21q16 -26 32 -53t11 -36q5 -10 4 -16q2 -10 8 -28.5t13 -39.5q5 16 32 87t31 77q-1 5 34 72t44 81q12 23 25.5 47t27.5 43l19 22l3 -3l-3 -18q0 -5 5.5 -10.5t3.5 -20.5q5 -6 7 -18l-1 -8l7 -24.5t12 -30.5l-1 -4l3 -5l27 -120l3 -5q6 -24 13 -48
q0 -9 3.5 -25.5t7.5 -28.5q-1 -10 -1 -20z" />
    <glyph glyph-name="N" unicode="N" horiz-adv-x="592" 
d="M583 403q-1 -1 -3 -13t-4 -25l-6 -9l1 -32q-4 -3 -4 -11q0 -7 -4 -9l1 -3q0 -3 -4.5 -5t-4.5 -4q2 -4 2.5 -6t3.5 -6q-2 0 -5 -7q0 -20 5 -25v-16q0 -10 2 -14q-5 -16 -2 -22q-2 -2 -1 -8.5t-1 -8.5q1 -3 0 -21t-3 -20q1 -9 1 -14l-3 -6q0 -6 -3 -20t-3 -20q-2 -6 -4 -7
q-5 -7 0 -11q-3 -3 -4 -14t-1 -21v-9l-3 -7l-2 -9l-13 3q-2 1 -5 7.5t-5 7.5q-2 -1 -5.5 -5.5t-5.5 -4.5l-4 2q-29 18 -54 49.5t-41 65.5q-21 17 -61 79t-48 92q-19 24 -35.5 60t-28.5 73q-2 2 -5 6.5t-6 4.5l-4 -1l-2 -10q2 -5 3.5 -8.5t1.5 -7.5q-2 -11 -3 -22
q-4 -1 -5 -6.5t-3 -6t-2.5 -3.5t-1.5 -6q0 -7 4 -19q-3 -2 -3 -10q0 -7 -4 -8q3 -7 2 -14v-15q-2 -4 -6.5 -7t-4.5 -13q0 -6 -4 -15t-7 -17l2 -9l-5 -6q2 -8 5 -15q0 -5 -3 -13.5t-4 -14.5l5 -8l-2 -16t-3 -12l1 -4q0 -11 -2 -37t-2 -28q-3 -1 -6 -8t-8 -6l-3 -31
q0 -9 -3 -13q-3 -15 -12 -25q-8 -6 -13 -6l-4 1q-8 5 -11 9l2 65q0 16 -1.5 35t-3.5 21v15q0 6 3 12q-1 3 1 10t2 8l4 12v15q0 7 -2 10q0 10 -5.5 26.5t-5.5 22.5q-2 9 -4 19v13l-2 10q1 4 1 18q0 12 -2 50t-2 40q0 14 1 19q-4 11 -6.5 21t-2.5 19q1 15 3 30q5 12 8 40.5
t3 41.5q2 9 4 19v11t-3 7l2 8l12 9l1 6q0 9 -4.5 26t-10.5 18q-2 7 -3.5 16t-8.5 12l-5 6q1 7 2 13.5t5 6.5q6 -1 13 -2l9 -5l2 -8l9 -2l7 6l11 -3l6 -8q10 1 22 -9q5 -1 7 -10.5t6 -10.5t20 -7.5t23 -6.5q3 -3 9 -6.5t7 -8.5q11 -6 17.5 -10.5t6.5 -12.5q0 -9 5 -12
q7 -12 11.5 -19.5t24 -24.5t23.5 -24l-1 -4q0 -2 4 -6t3 -8q1 -2 24.5 -28.5t28.5 -36.5t9 -12.5t8 -4.5l30 -31q0 -14 3.5 -16.5t3.5 -11.5q2 -7 3 -8t4.5 -6.5t3.5 -9.5q0 -9 6 -15q5 -13 8 -21t3 -17q2 -8 3 -9l3 -8l-3 -8l2 -5l9 -16q7 -3 13 -14v-10q0 -7 5 -8l4 1
q-1 3 -2 13t-3 13q-1 7 -1 15.5v13.5v26q-1 4 -2 13.5t-2 13.5q2 14 4 30.5t1 24.5l2 4v31q0 4 -3 20.5t-2 20.5q-2 3 -3 9t-2 9q0 10 -2.5 26.5t-2.5 21.5l1 85q0 12 4.5 32.5t4.5 26.5l2 6q-1 6 1.5 15t1.5 13l3 4l8 1q14 -6 28 -11v-10q6 -6 10 -11t3 -10q4 -3 8 -16
l-1 -3q0 -4 2.5 -12.5t2.5 -12.5q3 -6 3.5 -16t1.5 -19q-1 -10 2 -15l2 -24l-2 -12q0 -17 -3 -37q2 -2 2 -7t1 -8v-12q-1 -3 0.5 -9t1.5 -8l-4 -6l-1 -14l3 -8q3 -12 5.5 -24.5t2.5 -13.5z" />
    <glyph glyph-name="O" unicode="O" horiz-adv-x="618" 
d="M603 246l-5 -10l-2 -11l-10 -6l2 -7q-6 -16 -6 -34q-3 -1 -4.5 -6.5t0.5 -12.5q-3 -9 -6.5 -16t-8.5 -9l2 -7q-9 -9 -8 -16q-2 -3 -2.5 -8t-3.5 -6l-3 -11l-10 -14l-7 -3l-4 -12q-10 -7 -12 -13l-14 -7l-6 3q-3 -12 -6 -12l-13 -11l-9 -3l-9 -9l-5 -1l-3 2
q-1 -2 -6.5 -2.5t-6.5 -5.5q-10 -10 -14 -6l-8 1l-15 -7l-4 2l-15 3q-10 -6 -18 2h-11q-3 0 -11 2t-11 -1l-32 7l-4 -1l-34 9l-3 -1q-14 8 -24 13t-19 6q-63 45 -85 84t-59 140v4q0 12 -5 35t-5 34q0 23 -2.5 63t-2.5 48q0 72 25 121.5t75 100.5t69.5 56t34.5 12t26 14
q7 0 17 4t15 4l9 5q2 -4 7.5 -3t6.5 -2q1 0 18.5 -5.5t18.5 -4.5h23q7 -5 20.5 -12t21 -13.5t10.5 -12.5q4 -3 26.5 -25t25.5 -26l10 -5q10 -5 13 -10q5 -3 12.5 -12.5t12.5 -13.5l9 -23l-1 -5q1 -1 7.5 -12t9.5 -16.5t3 -18.5q6 -11 4 -17l3 -36q3 -1 3 -8.5t3 -9.5l-3 -4
q4 -5 5 -12t0 -15q4 -9 -2 -19l4 -9q-2 -17 -2 -26t3 -15l-2 -10l5 -9q4 -1 5.5 -6.5t3.5 -10.5q-1 -22 -1 -33q0 -18 3 -26q-8 -12 -9 -20zM537 352q0 15 2 28.5t5 27.5l-13 32q0 8 0.5 17t5.5 13v6q0 7 -3 14t-10 17.5t-30 62t-42 73.5q-5 -1 -11 2t-18 11l-24 -5
q-1 -4 -5.5 -11t-11.5 -14t-18 -15t-14 -13q-4 -2 -8.5 -10t-9.5 -18l-1 -8l-10 -7l-3 1q-10 -10 -23 -13q-7 -11 -15 -16q-2 -5 -8.5 -8.5t-8.5 -6.5l-3 1q-8 -10 -17 -27t-12 -26q1 -7 -6 -29t-6 -29q-2 -12 -4 -21.5t-7 -27.5q1 -4 -4 -16q3 -49 7 -97q-2 -6 -2 -10
q0 -5 0.5 -8.5t3.5 -11.5q0 -19 29.5 -70.5t48.5 -67.5q4 -7 16.5 -9.5t28.5 -5.5q9 1 18 -4q8 0 26 14.5t23 14.5q10 6 21 12l11 6q13 6 19 11q4 8 25.5 27.5t27 38t14 46t12.5 33.5q1 5 3.5 10.5t6.5 11.5v29.5t1 21.5z" />
    <glyph glyph-name="P" unicode="P" horiz-adv-x="525" 
d="M507 576l1 -45q-3 -12 -5.5 -19t-7.5 -16l1 -5q0 -11 -3 -12.5t-4 -5.5t-3 -15q-7 -11 -11 -17l-6 -3l-3 -8l-7 -3q-1 -10 -11 -20h-5l-4 -6l-2 -7q-14 -11 -25.5 -18.5t-25.5 -13.5l-4 2q-21 -13 -43 -18t-49 -5l-6 -1q-6 2 -6 4q-12 0 -25 5l-6 -34t-7 -21l-1 -6
q-4 -5 -6 -15l-3 -8l-2 -8l-5 -2l3 -53q0 -14 -3 -19q0 -16 -11 -49t-12 -37q-9 -6 -7 -14l-28 -82l-9 -1v9l-3 2q-2 12 -2 18t1 9q-11 26 -22 56t-11 50l-2 21q-5 9 -13 45t-7 48q-4 9 -8 36t-4 44q0 7 1 8q-4 14 -5.5 25t-1.5 30l-1 14l-2 26v26.5t1 27.5v18l-1 3v18
q1 3 2 17.5t2 29.5q9 17 14.5 58.5t5.5 68.5l9 9q12 0 22 -10q10 6 18.5 10t19.5 6l17 3l3 1q14 3 25 5t19 2q15 -1 35.5 1.5t23.5 2.5q18 0 72 -18.5t66 -30.5q18 -7 41 -27.5t20 -35.5l6 -1q0 -11 5 -14q4 -6 5.5 -12t2.5 -19zM447 584q-3 7 -10 18.5t-8 14.5l-3 4
q0 8 -18 23.5t-22 19.5q-7 2 -37 15t-49 13l-11 2q-40 -7 -80 -13l-4 1q-11 0 -19.5 -2.5t-21.5 -5.5l-1 -3l15 -21l-1 -3q8 -11 12 -17t10 -17t12.5 -33.5t9.5 -28.5l-2 -7l4 -19q0 -13 4 -17q1 -5 5.5 -38t10.5 -45v-12l4 -12l1 -7l38 -1h12q13 0 22.5 1.5t14.5 6.5
q22 8 56.5 38.5t46.5 52.5l2 5q0 12 3.5 36.5t3.5 33.5v17z" />
    <glyph glyph-name="Q" unicode="Q" horiz-adv-x="640" 
d="M624 365q2 -2 2 -12q0 -6 2 -8q1 -10 1 -15q0 -7 -5 -10q-1 -3 -2 -16t-3 -22l-5 -1q2 0 4 -7q0 -8 -4 -22.5t-7 -21.5l4 -8l-2 -16q3 -3 0 -9.5t0 -9.5q-2 -2 -2.5 -9.5t-4.5 -9.5q-5 -8 -9 -17t-3 -12q-4 -12 -13 -22l9 -11l-1 -3q7 -9 7 -15q2 -1 0 -9l1 -3l3 1
q4 -8 8 -10l1 -19l-1 -10l-8 -4q3 -20 2 -24v-13l-4 2l-4 -10h7l2 -7l-7 -5q3 -14 14 -27l-2 -18q-2 1 -11.5 8t-14.5 5q-12 5 -37.5 40t-24.5 46l-7 10q-20 -11 -40 -21l-5 -8l-4 2q-3 0 -10 -5.5t-12 -2.5l-7 -4q-5 0 -12.5 -3.5t-12.5 -1.5l-2 2l-4 -6l-11 1
q-4 -2 -13 -2q-16 0 -21 -3h-18q-12 0 -17 2q-9 2 -19.5 4.5t-21 4.5t-23.5 2q-8 0 -11 3q-4 -2 -11.5 1.5t-16.5 9t-17 12.5q-57 36 -79.5 67.5t-54.5 112.5q-2 8 -3 17l-4 14l1 4q-4 17 -7 34q-2 2 -2.5 9.5t-2 14t-1.5 25.5l-3 12q0 12 -2 43t-2 33q0 43 21 97t22 61
l35 64q33 38 69.5 67t76.5 45l-1 4q7 -3 11 -3t7 2t4 3q10 -5 43 -5l4 -2l15 1l25 -1l8 -6l5 3l7 -10q12 -5 25 -3l6.5 -6.5t5.5 -10.5q8 -4 16 -7q1 -6 8 -8.5t15 -5.5t11 -9q10 0 7 -8l8 -7l3 2q2 0 7 -9t9 -11q5 0 9 -7.5t7 -8.5q2 -4 10.5 -10.5t12.5 -10.5l-1 -3
q0 -4 9.5 -13.5t6.5 -20.5q5 -6 10.5 -13.5t3.5 -14.5l7 -3q-1 -9 -1 -13q0 -3 3.5 -8.5t7.5 -9.5l3 -18l-2 -7l8 -3l-1 -3q0 -8 9 -10q1 -6 3 -16.5t2 -14.5q4 -6 4 -22q2 -5 3.5 -8.5t1.5 -6.5q0 -8 -2.5 -23t-2.5 -18zM486 596q-4 0 -10 7.5t-8 8.5l-6 -2q-6 5 -17 0
q-2 3 -7 0t-8 -1q-2 -2 -15 -2l-9 -3q-2 -9 -8.5 -20t-12.5 -21h-7q-1 -4 -6 -7.5t-6 -5.5q-6 -1 -16 -9q0 -4 -7 -6q-3 0 -8 -6.5t-6 -6.5q-5 -8 -13 -11q-2 -6 -10 -12t-13 -11.5t-12 -13.5q-4 -9 -9.5 -15.5t-10.5 -12.5q-3 -1 -15.5 -26t-17.5 -24l-1 -16q-5 -4 -7 -16
l1 -3q-3 -8 -5 -16l-4 -12q2 -3 2.5 -12.5t2 -11.5t1.5 -12v-13q0 -8 2 -11v-29q3 -9 4.5 -31t2.5 -27q4 -7 2 -19q3 -21 29 -45.5t49 -35.5q2 -3 17.5 -7.5t33.5 -9.5q2 -3 10 -3l7 1q7 1 14.5 2t24 6.5t25 7.5t18.5 6q8 0 12 8l14 9l2 6q-18 13 -34.5 28t-27.5 30
q-3 -1 -6 5t-6 7q-4 5 -4 19l-8 14l4 6l-2 2q0 4 8 6l10 12l9 2l5 -1q3 -5 12.5 -10.5t24.5 -9.5q8 -7 19.5 -12t22.5 -9q1 -8 12 -8q0 -4 4.5 -7.5t3.5 -7.5l7 -4q7 9 16 42.5t9 48.5q0 8 2 31t5 26l1 14q0 111 -12 150.5t-74 109.5z" />
    <glyph glyph-name="R" unicode="R" horiz-adv-x="523" 
d="M512 -10q-18 3 -24 9l-27 25q-2 3 -47.5 48.5t-51.5 54.5q-34 24 -59 68.5t-35 62.5l-20 39l-6 14q-1 -5 -1 -13q1 -13 1 -19q0 -20 -2.5 -34.5t-9.5 -28.5t-7 -16l-5 -1l-1 -12l-6 -11q0 -12 -6 -14l-10 -9l-1 -4q-2 -8 -4 -13.5t-5 -13t-6 -12.5q0 -8 -5.5 -30
t-5.5 -31l4 -25l-1 -5l-1 -10l-6 -6l-6 -2q-3 13 -17.5 58.5t-14.5 49.5q-4 5 -14 42t-20 76l1 4q-4 7 -7 31t-3 37t-2.5 34.5t-2.5 24.5v96q0 17 4 54t4 54q4 11 3 17l4 11l-1 6q12 32 20 52t19 36l-1 10l4 9q2 5 6 9t7 0l3 -1q10 -1 47 10.5t51 11.5q8 1 17 2t20 2
q8 -2 14 -1q6 -3 18 -3h18q20 0 59.5 -18.5t64.5 -34.5q2 -3 15 -15t14 -12v-6q5 -4 9 -12l-1 -7l4 -2l3 -5l-1 -10q6 -15 7.5 -37t3.5 -42q-3 -5 -5 -18l-2 -4q-12 -35 -23 -57.5t-16 -19.5l-6 -1q-3 -5 -6 -11t-6 -7q0 -7 -6 -12l-12 -10l-7 -3l-4 -4l-6 2l-4 -4
q-8 0 -18 -8l-4 -7q-18 -5 -36 -9q-10 -1 -19 -2.5t-17 -2.5l-9 -1v-10q26 -21 53 -42l2 -4l9 -4l18 -20q-1 -9 9 -12q5 -5 14 -18t12 -20q0 -5 6 -17t5 -14q6 -10 11 -21t7 -17v-6l6 -10q1 -8 7 -21t7 -22q4 -6 14.5 -33.5t9.5 -30.5q5 -5 9.5 -14.5t8.5 -18.5zM450 595
q-5 9 -9 18q-19 25 -36.5 39.5t-46.5 24.5l-22 5q-5 -1 -14.5 1t-15.5 2l-7 -4q-11 0 -35 -1.5t-25 -1.5q-21 0 -26 4q-11 0 -19 -4l5 -7q6 -3 12 -9t14 -17q0 -6 8 -12q4 -8 7 -17t7 -25q-5 -12 -9 -23l1 -15l1 -38l3 -5q0 -7 2.5 -17.5t2.5 -13.5l2 -5v-30q0 -8 -1 -16.5
t-1 -12.5l1 -6l97 -5q11 6 23.5 12.5t16.5 6.5q2 1 16 9t22 10l6 9q0 7 12.5 32.5t12.5 38.5l1 39q0 7 -2.5 17.5t-3.5 16.5z" />
    <glyph glyph-name="S" unicode="S" horiz-adv-x="494" 
d="M505 212q-2 -8 2 -14t-1 -12q-2 0 -3 -6t-3 -6l-3 -9l1 -6l-10 -5l-4 -7q0 -12 -11 -21l-2 -22l-6 -2v-4l-4 1l-2 -6l-6 -1l-4 -5q-11 -5 -19 -14q-3 0 -6 -3l-5 -10l-15 -13q-2 -8 -8 -7v-5q-2 0 -3 1l-9 -8q-1 -4 -9.5 -4.5t-11.5 -0.5q-6 -9 -18 -16q-3 -5 -10 -5
q-6 1 -9 1q-3 -10 -17 -4q-7 -2 -23 -3.5t-24 -0.5l-16 -4q-8 0 -16.5 1t-16.5 2q-7 0 -10 -1l-3 6q-14 0 -22.5 4.5t-26.5 17.5q-26 16 -51 33q-36 28 -36 97q10 33 20 67q14 33 52 38l26 -4l7 -2q2 -5 20 -10t22 -10l8 -5l10 -24l-3 -12l2 -11q-3 -1 -5 -8t-12 -9l-10 2
q-7 -3 -12 6q-3 1 -7 8.5t-9 7.5l2 5l-2 6q-10 4 -17 4l-2 -3l-2 -7v-7l-4 -7q-2 -6 -3 -14.5t-2 -16.5l3 -6v-9q10 -20 21.5 -33.5t19.5 -23.5q7 -4 15 -7l3 -6l4 2l7 -3l12 -2q43 11 60.5 22.5t29.5 30.5q11 6 13 20t2 39q-1 7 0 15l2 16q0 4 -9.5 39t-13.5 43
q-3 2 -5.5 6.5t-5.5 5.5q-73 82 -146 165q-27 42 -34.5 70t-7.5 94q3 4 5 12.5t4.5 15t7.5 15.5q21 20 41 38t26 15q13 5 26 9.5t28 8.5l8 -1l9 2h19q12 8 24 6q6 -5 11 -5q6 1 11 1q12 -3 24.5 -5.5t18 -6.5t15.5 -9q6 -8 12 -10l11 -11l7 -28l-4 -11q6 -3 1.5 -17
t-7.5 -21l-4 -2l1 -4q0 -6 -6 -10l-17 -7l-6 2l-6 -2l-11 6q-5 9 -6.5 12t-1.5 13q6 11 5 15l3 13q-2 7 -7 16t-7 13q-6 5 -19.5 11.5t-20.5 6.5q-8 0 -10 -2q-17 2 -27 -2l-37 -35l-3 -6l-13 -14q-5 -11 -9 -27q3 -3 17 -27.5t13 -26.5q3 -2 9.5 -4.5t9.5 -8.5q3 -2 8.5 -6
t10.5 -3l20 -14q10 -6 21 -11q6 -6 15 -8l14 -9q8 -9 19.5 -26.5t14.5 -21.5l13 -6q11 -8 15.5 -14.5t8 -11t16.5 -17t17 -15.5l18 -16l1 -5l5 -1q16 -19 18 -49t7 -39l-1 -5l4 -5l-1 -9l6 -3q1 -12 3 -24q-3 -3 -4 -8.5t-2 -11.5z" />
    <glyph glyph-name="T" unicode="T" horiz-adv-x="493" 
d="M523 693l-3 1q-4 0 -8 -8l-15 -1l-36 -10q-16 -4 -31 -8l-10 -1q-1 -4 -17 -7l-3 2q-2 0 -5.5 -1.5t-5.5 1.5q-7 -4 -13.5 -8t-17 -8t-14.5 -4q-7 0 -7 -7q0 -5 5 -6q2 -6 5 -12l-1 -4q1 -7 3 -7q-3 -13 4 -14l1 -14q0 -8 2 -11q2 -18 5 -26l-4 -9q1 -2 1 -12v-12
q-2 -10 -2 -16q0 -5 3 -8l1 -13q-2 -7 -4 -13v-4q-1 -4 0 -10.5t2 -14.5q0 -1 2.5 -9t0.5 -13l7 -9q2 -11 5 -21l-2 -8q2 -3 2 -11.5t2 -12.5q-1 -4 -1 -12q0 -15 -1 -18q2 -2 2.5 -9t1.5 -13q-1 -3 -1 -14q0 -10 -0.5 -19.5t-4.5 -12.5q-1 -5 -5.5 -11.5t-8.5 -11.5
q-1 -10 -10 -13v-4q-2 -19 -3 -37q-4 -8 -7 -10q-5 -14 -8 -22t-5 -8q0 -4 -4.5 -10t-4.5 -9q-10 -10 -10 -18l-16 -28q1 -4 -3.5 -7.5t-4.5 -5.5l-6 -5q0 -5 -3 -13t-3 -20q-5 -13 -11 -13l-14 32q-3 23 -6.5 50t-3.5 43q-1 1 -2 7l-2 5q1 5 -1 12.5t-3 13.5t-4.5 18
t-11 47.5t-7.5 44.5q-2 2 -2.5 7.5t-1.5 7.5l-3 21q-1 7 -3.5 17t-4 32.5t-1.5 53.5v83q2 3 2 14q0 6 2 8l3 61l2 7l7 52q-1 3 0.5 4t2.5 2l-7 3q-6 0 -15 -2t-17 -4q-2 -2 -7 -1.5t-8 0.5q-5 0 -16 -2t-16 -2l-32 3q-7 3 -8 4q-15 0 -17 2q-2 0 -14 4.5t-24 9.5
q-9 7 -18 15q1 11 2.5 18.5t9.5 7.5l4 7l6 -3q3 0 9 5t15 9t19.5 9t17.5 7l10 4q7 0 19 3t18 3l15 -3l36 -3q6 0 18 1t17 1q8 0 13 -1t9 -1q12 0 15 -2q10 -2 14 -5l9 -1q5 0 19 -3t21 -1q3 -1 9 -1t18 2q10 -2 20 -3t22 -1q6 0 9 -3q9 -4 14 -4q12 0 37 -1t37 -1
q3 -2 17 -2q8 0 11 -3q10 2 12 -3z" />
    <glyph glyph-name="U" unicode="U" horiz-adv-x="607" 
d="M593 444l-4 -24l-3 -10v-15q0 -8 -1 -13l2 -3l-1 -60q-2 -9 -3 -18q-1 -8 2 -19q-3 -7 -6 -24t-3 -36q0 -9 -4 -13l-3 -9q-9 -11 -8 -17q-1 -6 -8 -10l-3 -8l-5 -5v-10q-3 -1 -8.5 -11t-6.5 -12l-5 -10l-7 -6q-4 -6 -7 -9.5t-3 -9.5q-3 -4 -6 -12t-3 -13l-15 -28
q-9 -2 -17 -3l-6 -7h-4q-8 0 -13 -5l-12 -3q-3 -5 -13 -7t-13 -6l-25 -8h-11l-8 -3q-9 2 -13 -2l-9 -3q-19 0 -40 1t-34.5 5t-20.5 7q-8 2 -15 4l-11 4q-8 0 -24 11t-22 20q-14 14 -22.5 25t-14.5 26l-18 31q-5 9 -10 21t-12 31.5t-6 25.5l-4 11l1 3q0 16 -2 35t-6 32l1 6
l1 4q-1 26 -2 41t-4 20q0 8 1 24t1 25l-2 2q1 9 1 15q0 4 -3 10q0 18 3 24.5t3 11.5q-2 13 -2 19q0 5 3 8l-1 10l1 6q-2 3 -0.5 12l2 12t2.5 18.5t2 20.5l-1 5q9 9 3 14l6 20l3 16q2 2 2 9.5t2 11.5l1 19q0 34 12 65l11 -2l12 3q7 -1 7 -3q4 2 7.5 0t8 -7.5t11.5 -13.5
q4 -9 10 -14l3 -9q6 0 14 -15q4 -11 9 -21v-7q1 -15 2 -20.5t8 -12.5t7 -14q4 -9 9.5 -19.5t3.5 -16.5q2 -6 3 -19t2 -18q-1 -4 -1 -12q0 -6 -2 -9q-2 -7 -2 -25q0 -16 1 -23l-3 -16l5 -27l-3 -21q1 -4 1 -10q-1 -10 -1 -16q0 -9 1.5 -15.5t4.5 -11.5l3 -12q0 -12 -3 -15
l-2 -36l-4 -30q-4 -6 -4 -11q0 -3 4 -9.5t4 -9.5q2 -2 3 -8.5t2 -8.5q0 -3 3.5 -10t0.5 -11q1 -8 13 -23t12 -30q2 -7 4 -7l2 -8l15 -13l9 -2q2 -3 7.5 -7.5t7.5 -7.5l11 -3q7 1 9 3l3 -2q8 1 14.5 1.5t8.5 3.5q3 0 7.5 1t6.5 -1q6 0 18 6.5t17 11.5q2 0 5 3t6 2q6 6 14 13
t18.5 22t14.5 27q5 4 16.5 36.5t15.5 38.5q2 9 4 19l6 12v12q0 6 2 9q-1 14 -1 29q-5 8 -1 11q-4 7 0 11q3 51 7 102l-1 5l1 7v14q0 6 2 9q0 11 2 16q-2 3 -2 12q0 8 -2.5 9.5t-3 7.5t-1.5 8q0 7 -2 24t-2 18q3 9 3 20q0 6 -1 17.5t-1 15.5t2.5 14t2.5 13q-2 7 -3 14l-3 11
v15l7 14l1 14h10q7 3 7 5q5 3 11 7q2 0 4.5 -4.5t4.5 -8.5q12 -9 13 -9l2 -14q6 -9 7 -11.5t1 -11.5q1 -6 4 -11.5t3 -18.5q0 -16 2 -24t2 -14t-3 -9q0 -14 -2 -17q4 -15 0 -23l-1 -33l6 -19q-1 -6 -1 -16q0 -12 1 -23t2 -21z" />
    <glyph glyph-name="V" unicode="V" horiz-adv-x="607" 
d="M614 653q-7 -25 -7 -48q0 -5 -5.5 -20t-4.5 -18q-7 -1 -7 -16q-4 -14 -4 -24q0 -2 -2 -6t0 -7l-2 -11q2 -9 -1 -18t-4 -14l2 -9q0 -10 -7 -17v-12q0 -6 -5 -9q-3 -19 -12 -34q0 -7 -4.5 -17t-5.5 -12q0 -5 -3 -12t-3 -10l-15 -32q-2 -8 -4 -15q-5 -4 -7 -14l-26 -48
q-9 -7 -8 -14q-4 -6 -6.5 -10t-2.5 -12q-1 -6 -3 -7l-2 -11l1 -7q0 -6 -6.5 -16.5t-11.5 -18.5l1 -8q-6 -4 -5.5 -8t0.5 -8q-3 -7 -6 -13q-3 -1 -5 -8.5t-4 -8.5q-1 -8 -1 -16q-4 -8 -7 -15q-7 -8 -13 -15l1 -8q-8 -10 -9 -15q-3 -1 -6 -7.5t-8 -6.5q-4 -3 -4 -9q0 -4 -3 -6
t-15 -2q-5 1 -9 1q-7 0 -18 16l3 12q-6 9 -10.5 20t-9.5 36q1 5 -9 17q-38 58 -58 93t-39 83q-2 2 -5 8.5t-8 6.5q-12 8 -24 17q-9 9 -14.5 13.5t-7.5 12.5q-5 5 -12.5 20.5t-6.5 22.5q-2 9 -3.5 15.5t-4.5 11.5q-1 10 -14 35t-13 37q0 14 -8.5 47.5t-8.5 35.5l1 5
q0 9 -3 12q-2 9 -3 19l-4 12q2 6 -2.5 20.5t-10.5 27.5q0 13 -4 41t-4 37q0 22 16 21q4 0 12 -3t13 -3q10 -8 20 -15q14 0 38 -19t30 -32q0 -5 1 -7.5t6 -8.5q5 -2 7 -5t6 -13l-1 -5q0 -3 10.5 -14.5t13.5 -12.5q9 -9 16 -15t15 -8l5 -8q4 -5 9 -9.5t5 -9.5q5 -4 10 -11
l10 -14q7 -22 7 -27l4 -12q-3 -6 3 -12l2 -10q3 -3 5.5 -10t6.5 -8q8 -9 17 -17q3 -7 7 -11.5t14 -12.5l12 -23q-6 -15 -6 -31q7 -5 18 -23t14 -24q-1 -7 4 -17t5 -13l-2 -20l3 -5l6 17q4 12 8 17l3 13q3 2 3.5 11.5t2.5 11.5v5q0 2 4 8.5t3 11.5q35 83 71 166q0 4 3 9t2 9
q8 20 12.5 29.5t11.5 16.5q2 11 24.5 67.5t21.5 61.5q7 1 7 13q0 8 9 10.5t14 1.5q4 0 7 -12q-4 -27 -5.5 -43t-3.5 -18z" />
    <glyph glyph-name="W" unicode="W" horiz-adv-x="771" 
d="M773 681q-2 -12 2 -16q-2 -10 -2 -21q0 -7 1 -10q-2 -5 -3 -16t-1 -30l-4 -5q-1 -21 -1 -31q0 -12 1 -17l-4 -11q0 -4 -3 -11.5t1 -11.5q-2 -2 -2.5 -8t-2.5 -9q0 -3 -3 -8t-3 -8q-5 -4 -5.5 -14t-0.5 -14l4 -5q-11 -8 -5 -15q-1 -1 -4.5 -15t-5.5 -21l2 -5q-3 -7 -4 -8
l-9 -43q-5 -5 -5 -15l-12 -11l-2 -13q3 -7 3 -9q0 -4 -2 -8t-4 -10l-12 -21l-4 -1l1 -12l-3 -5l3 -9q-3 -4 -6 -8.5t-2 -9.5l-7 -9q-2 -13 0 -19l-16 -36v-7q0 -8 -5 -11l-3 -17l2 -9q0 -4 -2 -7t-3 -4l2 -2q0 -9 -4 -13l-4 -6q0 -5 -4 -26t-4 -22l-3 -5l-8 -4
q-3 0 -10 -3.5t-10 -3.5q-12 0 -17 2q-7 17 -13 31t-12 21q-1 4 -55.5 144t-52.5 161q-5 8 -8.5 19.5t-5 19t-1.5 14.5l-2 3q-5 -9 -5 -19l-3 -4q-2 -11 -4 -25t-5 -17l-3 -11q-1 -1 -6 -12t-9 -16l1 -5l-1 -19l-5 -7l-1 -9l-8 -9q-4 -14 -5.5 -20t-9.5 -16
q-2 -12 -3.5 -21.5t-7.5 -13.5l-12 -28l-9 -9l-3 -18l-7 -9l-2 -2v-5l-1 -6q-5 -1 -7.5 -8.5t-6.5 -9.5l-10 -24q-2 -10 -5.5 -15t-4.5 -7q0 -3 -8 -17t-11 -16q-3 -8 -8.5 -11.5t-7.5 -6t-14 -2.5q-14 0 -18 11l1 4l-2 10l4 10q-1 4 -13 24t-13 25q-7 13 -14 30t-16 40
q0 3 -18 44.5t-21 54t-9 35t-11 28.5q0 5 -3 10t-2 8q-2 4 -5.5 23t-7.5 23q0 17 -10.5 53t-10.5 51q-2 2 -2 11q0 6 -4 8l-5 21l1 4q-4 14 -4 22q-2 20 -3 25l2 5l-2 6q0 16 -0.5 33t-0.5 34q-1 9 -1 13l2 5v15q0 8 2 11q0 3 4 17q0 2 2 7t1 8l6 10q0 8 5 11l2 -3
q8 6 11 -1l8 -5q9 -8 15 -9q2 -4 10 -4q5 -1 6 -2q3 2 6.5 -2t6.5 -3q10 -5 14 -6.5t9 -4.5l23 -16q1 -2 8 -8t8 -12q9 -6 18 -11q2 -8 8 -7l12 -14q15 -18 15 -43q0 -8 5 -12q-1 -3 2.5 -19.5t3.5 -20.5q0 -7 2 -10q4 -11 0 -19v-10l9 -16l-1 -8q4 -6 9 -11q2 -5 1 -11
q7 -11 7 -29q0 -2 2 -7t1 -8l4 -9q0 -4 1.5 -9t4.5 -13t-1 -20l6 -20l-2 -7l6 -4q3 10 9.5 28.5t11.5 31.5t10 17q-1 5 1 9t4.5 7.5t5.5 11t5.5 16t24 49t25.5 55.5l5 5v30q2 4 2 8v6v11q0 13 18 15q2 -1 4 -7.5t6 -5.5l7 3q3 0 9 -9q13 -8 15 -8q0 -5 11.5 -16.5
t11.5 -24.5q4 -2 11.5 -15.5t6.5 -17.5q12 -10 18 -22q14 -6 14 -20l4 -7q-1 -4 2 -7.5t1 -6.5q6 -12 13.5 -28.5t5.5 -21.5l6 -1q7 -12 7 -16q4 -8 8.5 -15.5t7.5 -9.5v-5q2 -9 4 -9l-1 -9q8 -13 17 -26l-3 -17l2 -4q7 14 8 21l-1 3q4 9 4 14q9 35 23 65l-1 3q1 5 4 11
t4.5 11.5t0.5 10.5q3 3 13 34t11 36q4 7 7.5 14.5t9 22.5t6 17.5t5 14.5t6 18.5t1.5 11.5l8 42l-1 3q0 3 5 13l6 22v4q0 9 7.5 21.5t8.5 19.5l10 4q4 -2 4 -12q0 -4 4 -6v-16q-1 -11 -2 -21z" />
    <glyph glyph-name="X" unicode="X" horiz-adv-x="600" 
d="M636 -19q-16 8 -65 51.5t-57 47.5q-2 3 -21 17.5t-21 19.5q-19 12 -38.5 26t-31.5 31q-11 6 -33 30.5t-39 46.5l-11 -13q-5 -3 -7.5 -6.5t-4.5 -7.5l-8 -6q-8 -6 -8 -13q-1 0 -5.5 -5.5t-8.5 -4.5l-3 -3l-1 -5q-11 -13 -16 -23l-8 -6l-1 -4l-9 -6q-5 -11 -14 -17
q-2 -5 -8.5 -9t-8.5 -8q-12 -7 -30 -20t-21 -15q-3 -5 -28.5 -28.5t-29.5 -25.5q-1 -3 -6 -4t-10.5 -2.5t-11 -4t-12.5 -5.5l-7 -4q-12 -3 -18 -3l-6 -2q-2 0 -3 8v5q5 13 23 25t28 36t23 54.5t27 47.5l68 94q3 2 15 15t15 14l10 10l-1 3l27 26q-11 12 -22 25
q-4 10 -19.5 30.5t-21.5 28.5l-36 46q-22 27 -51.5 82t-37 78.5t-8.5 48t-3 32.5l1 10l5 7q10 7 35 7l5 -2q12 -2 32.5 -15.5t28.5 -14.5l5 -10l7 -4q6 -7 12 -13l4 3q9 0 12 -7q7 -2 15 -4q1 -4 13 -10.5t17 -8.5l13 -13t6 -5.5t5 -8.5q28 -26 50 -50t42 -60l7 -3
q6 6 21.5 29t22.5 30l3 5q13 13 19.5 23.5t12.5 14.5q30 41 61.5 80t54.5 57q2 4 9 12.5t11 13.5l11 -2v-14l-3 -17q-6 -9 -13 -20t-17 -25.5t-13 -16.5q-2 -5 -3 -17t-3 -18l-4 -4q-5 -11 -10 -21q0 -10 -6 -15l2 -11l-3 -25q6 -9 6 -15l-11 -27q2 -11 -2 -22q-7 -7 -6 -13
q-9 -11 -12 -18q-8 -7 -15 -24t-10 -23l-8 -10l-2 -12l12 -9l10 -14q10 -5 15 -14t9 -17l5 -2q6 -12 7 -18q9 -8 15 -17.5t6 -22.5l18 -24q0 -4 4 -8t4 -7l4 -9v-13l-3 -14l-4 -4q-1 -10 -8 -20l3 -13q5 -5 8 -8.5t2 -8.5q8 -11 11 -12l3 -5q0 -7 7 -17.5t8 -12.5l-1 -15
q8 -6 11 -13q0 -11 5 -14q4 -12 8.5 -25t10.5 -22l4 -29z" />
    <glyph glyph-name="Y" unicode="Y" horiz-adv-x="487" 
d="M490 537q-2 -3 -5.5 -15t-4.5 -22q-3 -3 -17.5 -26t-26.5 -28l-3 -10q-6 -4 -9.5 -7t-2.5 -8q-2 -4 -20.5 -39.5t-18.5 -59.5l-3 -6v-24q5 -7 5 -18q0 -3 -1.5 -12t-6 -13.5t-10 -16.5t-3.5 -18q-10 -19 -10 -46q-10 -14 -16 -28q-4 0 -7.5 -5t-5.5 -6q-8 -14 -4 -28
q-5 -2 -6 -13.5t-6 -15.5l-4 -16l-7 -4l-7 -11l2 -8q0 -12 -5 -16l-3 -13l-4 -7l-10 2q-2 14 -3.5 24t-1.5 17q-2 5 -3 19.5t-2 20.5q-4 4 -4 19v4q-17 27 -22.5 58.5t-5.5 69.5v45l-1 3l-1 21q0 19 1.5 31.5t6.5 25.5v9q-10 4 -19.5 16.5t-13.5 24.5q-3 3 -10 7.5
t-32.5 24.5t-77.5 88t-72 121q-2 2 -4.5 19t-2.5 25l-1 30l10 9q3 0 7.5 -3t7.5 -1q12 -10 25 -20t26 -16q1 -3 6 -8t8 -7q1 -5 3.5 -9.5t6.5 -11.5l7 -3l28 -25l2 -4q9 -10 19 -19q6 -11 9 -18.5t3 -16.5l-4 -16q2 -4 4.5 -15.5t3.5 -16.5q10 -7 16 -19q4 -4 6 -18l5 -8
l2 -10q7 -3 14.5 -10.5t9.5 -8.5q1 -3 7 -7t7 -7l17 -16q17 56 60 138t52.5 93t20 23t15 19t8.5 13l8 14l10.5 13.5t7.5 4.5q3 0 9.5 -4.5t10.5 -5.5l3 -5q7 1 14 -9t9 -13v-4q0 -10 5 -14l-1 -12q4 -4 6 -13t2 -21q0 -16 -2 -33.5t-3 -32.5l-1 -6l1 -6q-1 -10 -2 -19z" />
    <glyph glyph-name="Z" unicode="Z" horiz-adv-x="481" 
d="M506 609q-7 -4 -5 -12l-10 -30l-3 -17q-1 -1 -3.5 -9t-5.5 -9t-7.5 -9t-8.5 -7l-1 -4q-8 -8 -11 -18q-2 -2 -26 -58t-25 -60q-8 -13 -17.5 -30t-15.5 -22l-1 -6l-16 -21q-4 -1 -10.5 -9t-9.5 -13q-2 -8 -8.5 -17t-9 -13t-5.5 -8l-10 -11l-4 -12l-6 -11l-9 -7
q-2 -7 -7.5 -14t-5.5 -11l-14 -9h-5q-5 -6 -15.5 -18.5t-12.5 -12.5l-18 -1q-1 -1 -6 -4t-6 -7l-7 -2l-8 -16q0 -3 -4 -6t-5 -8l2 -4l-12 -2l2 -4q8 2 20.5 3t23.5 1q7 2 15 4l9 2q18 0 23 -3q5 2 11 -2q9 0 31.5 -7t27.5 -7l3 2l17 1q5 -1 10.5 -1h11.5q14 0 19 4
q10 1 15 1l4 -2q13 -3 20 -3q17 -12 42 -12l33 -1l9 -6l4 -8q4 -5 4 -7v-12l-6 -10l-3 -1q-7 3 -9 3l-9 3q-16 -3 -24 -3q-7 -4 -17 -7.5t-16 -3.5q-10 0 -16 5q-2 -1 -7 -1t-9.5 -4t-11.5 -8l-5 -6q-4 1 -14 -2t-14 -3t-13 2t-14 2q-2 2 -4.5 2.5t-6.5 1.5l-5 3q-8 2 -16 3
l-33 7q-3 -1 -6.5 -1.5t-6.5 -0.5l-1 -3l-5 1q-2 -1 -27 -2t-28 -1h-18l-4 -4l-8 2l-4 -2q-12 -2 -17 -2q-11 1 -21 1q-7 3 -16 1q-11 3 -15 4q-3 -3 -11 2t-10 5l-6 -2q-6 4 -6 7l-2 11l-2 15l2 5l2 8q-1 6 0.5 8.5t6.5 9.5q6 2 11.5 22t12 42.5t42.5 100.5t48.5 102
t16.5 31l13 26l19 35q38 59 59 90.5t32 49t15 23t9 14t8 13.5q7 5 18.5 20t13.5 17l2 5l-8 2q-2 -2 -7 -1t-6 -2q-9 0 -13 -0.5t-6 -3.5q-8 -4 -22.5 -5t-22.5 -4q-1 5 -7 3q-16 0 -32 1l-2 2l-10 -2q-7 -4 -10 -1l-10 -2q-37 1 -61 4t-38 13q-3 1 -5.5 2t-4.5 3
q-13 2 -19.5 5.5t-8.5 2.5q-20 12 -39 25v6l5 9l6 4q8 5 12 5l4 -3q1 -1 14 -3t16 -3q3 0 15 3.5t17 3.5l15 3q2 1 9 1l5 2l14 2q14 0 17 2l61 -1l54 -2l49 -6q4 0 18 3t22 1q9 3 23 3q13 0 22 -3l5 4q6 10 11 9q0 2 4 3q10 0 20.5 -11t15.5 -12l10 -14l3 -3l3 -11l-1 -4
q4 -15 4 -26q1 -5 1 -15q0 -22 -9 -40z" />
    <glyph glyph-name="bracketleft" unicode="[" horiz-adv-x="775" 
d="M791 458q2 -3 2 -18q-2 -2 -2 -8t-3 -8v-5q1 -8 -4 -17q-2 -9 -3 -17l-3 -10q-9 -9 -6 -15l-5 -8q-9 -7 -11 -11t-1 -9l-7 -5l1 -4q-3 -8 -5 -9q-1 -8 -1.5 -13.5t-4.5 -9.5l-3 -13l-6 -2l2 -5l-7 -15q-6 -3 -8 -12q-12 -5 -10 -12q-5 -6 -11.5 -11t-16.5 -11l-14 -14
t-18 -12h-7q-6 -6 -11 -12q-11 -6 -10 -11l-3 -6l1 -8q-4 -16 -15.5 -23t-11.5 -8l-7 -3q-7 -5 -14 -9l-27 -13v-7l-10 -8q-5 -10 -14 -9l-10 -8h-4q-8 3 -8 -5q-9 -4 -17 -7q-3 -5 -15 -5l-14 -2q-2 -3 -7.5 -5t-7.5 -4q1 -4 -3 -7t-7 -6q-4 0 -11 -3.5t-10 -2.5
q-20 -11 -44 -11q-9 0 -13 -2h-16q-7 -2 -13 -5q-17 -2 -33 -4h-14q-16 0 -32.5 0.5t-26.5 6t-29 22.5t-21 31q-2 7 -3 14l-2 5v10q2 12 4 25q0 6 4 11t4.5 6t11.5 1q3 0 13 10q10 3 21 6q9 0 22.5 -5t16.5 -5l5 -14l-9 -8l-10 1l-4 6l-9 -3v-5h-4q-10 0 -10 -6l5 -18
q5 -6 11 -11q1 -6 7.5 -9.5t14.5 -3.5q14 1 28 3q7 10 14.5 29t7.5 29q-8 46 -84.5 107.5t-119.5 95.5l-18 19q-24 42 -37 65.5t-17 47.5t-5 26q2 4 2 14.5t2 15.5q-1 5 1 11t2 8l4 10l7 23q6 11 12 19t13 17t10 17q7 4 10.5 7t10.5 12l10 2l12 8q16 9 33 18t21 10q9 2 18 5
l3 2h31q4 -2 12 -2h19q6 3 14 3q9 0 21.5 -4.5t23.5 -8.5l10 -8q8 0 18 -6t28 -20q4 -6 9.5 -12.5t4.5 -12.5l9 -7q34 31 56 44t69 34q4 0 14.5 2t15.5 1l3 2l43 2q4 0 11.5 -2.5t8.5 -2.5q3 -2 13.5 -5t15.5 -6q3 0 7.5 -3t10 -5t14 -5t10.5 -8l14 -6q5 -6 19.5 -17
t18.5 -16q5 -3 9.5 -10t7 -11.5t8 -8t6.5 -7.5l9 -9l-1 -9q6 -4 8.5 -13t4.5 -16l2 -7v-7q-1 -8 1 -20.5t2 -13.5l2 -10zM666 527l-3 18l-32 50q-11 12 -33 20h-10q-1 -3 -4 -2t-5 3l-5 -5l-3 2l-14 -1q-5 -4 -15 1l-10 -4q-5 1 -14 -1q-1 -2 -8 -2l-4 -2l-10 -7l-6 -1
q-8 -13 -12.5 -15t-8.5 -5q0 -3 -6 -4t-6 -5l-4 1q-2 -4 -7.5 -12t-6.5 -11q-5 -2 -9.5 -9t-7.5 -11t-7.5 -7t-2.5 -10q-9 -4 -11 -12t-7 -10l-2 -7q-3 -4 -19 -4l-3 3l1 5q0 6 -11.5 19.5t-11.5 20.5l-7 8q-4 25 -21.5 43.5t-42.5 26.5l-3 -1q-3 0 -8 2t-9 1l-9 3l-5 1
q-5 0 -7.5 -2t-3.5 -2q-1 -7 -10 -7q0 -5 -2 -9t-3 -5l-13 -9q-7 -8 -11 -13q-3 1 -5 -2t-3 -6t-16 -15.5t-16 -23.5q-2 -3 -2 -10.5v-10.5t-5 -9t-4 -10l-2 -4q0 -2 2 -7t0 -8l3 -17q2 -2 5 -9t5 -9q4 -9 -1 -13q6 -6 4 -12l7 -5l-2 -4q6 -7 13 -13l6 -9l1 -10l6 -3
q1 -1 7 -5t8 -8q5 0 9 -5.5t8.5 -10.5t10.5 -7l62 -39q0 -4 5.5 -5.5t6.5 -3.5q3 0 6.5 -3.5t5.5 -4.5l1 -4l18 -9q6 -4 12 -7q4 -9 7.5 -10.5t10.5 -5.5l6 -8l1 -10q7 -11 7 -14q0 -5 -4 -10q4 -3 5 -5.5t-2 -4.5l1 -6l-2 -7l2 -9l-1 -5l4 -4l2 -13q-5 -11 -6 -15l1 -4
l-3 -10l-12 -5q0 -6 -15 -20t-16 -15q-3 0 -4 -3.5t-2 -5.5l3 -4q3 0 10 5t12 4l63 39q3 0 7 5.5t6 6.5q3 7 13 12.5t25 13.5l7 10q3 13 25 37.5t34 29.5q2 5 7.5 13t6.5 12q15 16 23 24t16 11q20 20 33.5 34.5t21.5 29.5q3 3 3 13q1 5 2 7.5t8.5 15t5.5 21.5l2 9q3 2 3 13
q0 7 2 21t2 21l2 2v23q0 8 -3 25t-3 25z" />
    <glyph glyph-name="backslash" unicode="\" horiz-adv-x="808" 
d="M833 502l-12 -5l-3 1q-3 0 -7 -5t-7 -5q-5 -7 -9 -4q-3 -3 -9 -5.5t-13.5 -6.5t-14.5 -8q-2 -4 -7 -5l-10 -2q-2 -2 -6.5 -4t-5.5 -4t-12 -2l-6 -4l-9 -2h-31q-18 0 -26 4q-5 0 -12.5 2.5t-9.5 2.5l-58 31q-15 -3 -13 -11q-8 -10 -6 -18q-4 -7 -13.5 -21.5t-12.5 -15.5
q-5 -15 -8 -17q0 -3 -5 -6.5t-5 -6.5q-10 -5 -19 -9l-12 -7q2 -1 9.5 -2l15 -2t15 -3.5t14.5 -7.5q3 0 8 -3.5t8 -3.5q9 -4 13 -8q21 0 41 -5q2 7 5.5 15t7.5 13q4 13 27.5 18.5t26.5 7.5l48 -14q5 0 9 -5t6 -5q0 -3 7 -10t9 -13q-4 -18 -6.5 -28.5t-5 -14.5t-4 -7t-8.5 -11
q-10 -3 -9 -8q-7 -2 -15 -4.5t-13 -2.5l-7 -4q-1 1 -8.5 1t-9.5 5q-13 3 -16 2l-36 18l-3 4q-10 2 -14 -3q-6 9 -14 7l-49 28q-1 3 -6.5 3.5t-7.5 2.5h-6q-17 3 -25 3q-3 -2 -7.5 0.5t-6.5 0.5l-12 2q-30 0 -56.5 -9t-43.5 -15q-3 -5 -15 -9t-15 -9l-9 -4l2 -3l26 4h7l2 -3
q26 0 47.5 -3.5t35.5 -14.5l25 -8q4 -5 13 -8t20 -6l5 2q1 -3 6.5 -4t7.5 -3q16 -6 32 -12.5t17 -9.5l6 -2l4 -7l-1 -4q-8 -2 -13 -3.5t-7 -6.5q-8 -6 -14 -5q-1 -4 -6 -6.5t-6 -4.5l-11 -2l-3 -5q-7 -4 -13 -8q-2 -3 -12 -3q-6 -2 -6 -4q-5 -2 -14 -2t-14 -2q-8 1 -24 -6
l-14 2q-2 -2 -8 -2t-8 -3q-26 3 -55 12.5t-45 14.5t-28.5 15t-15.5 10q-6 0 -8 -9q-3 -2 1 -10l-3 -17q-4 -11 -8 -21q-3 -1 -13 -21.5t-17 -22.5l-6 -7q-3 -8 -5 -13.5t-4.5 -9.5t-6.5 -8q-8 -3 -13.5 -13t-7.5 -15l-5 -2q1 -6 -5 -9.5t-12 -4.5q-9 -11 -24 -11
q-5 -4 -15 -4q-38 0 -58 17t-20 55q3 10 7 21l10 18l1 4l9 -2q12 4 29 4l39 -14l8 -10l3 -10l-8 -4l-4 1l-7 -6q-2 -1 -9 1t-8 2q-8 -2 -9 -3v-5l-6 -1q1 -1 2 -7l-2 -6q-7 -2 -5 -10t0 -10l7 -3l16 2l21 9q5 7 11 15.5t6 17.5q2 2 2 12l4 7q3 11 11.5 24.5t9.5 16.5
q12 12 16.5 20t9.5 27v27l3 15q-18 18 -23 38q-3 3 -6.5 20t-4.5 19l2 23q-1 5 -2 6l-8 2h-6l-19 3q-15 9 -24.5 21.5t-9.5 28.5l3 19q5 11 11 23q7 10 23 10q0 5 6 5h12q18 -7 36 -13q12 -6 20 -17q1 -5 1.5 -8.5t-3.5 -5.5q2 -5 3.5 -8.5t1.5 -6.5q0 -4 -2.5 -10.5
t-2.5 -9.5q0 -6 -5 -8q-4 -7 -4 -11q0 -3 4.5 -4t8.5 -2t6.5 -5.5t4.5 -5.5l5 -10q-1 -10 -1.5 -18.5t-2.5 -11.5q-2 -11 3 -14q8 6 9 13q9 12 15 20.5t10.5 13t12 10t10.5 9.5q14 9 20 12.5t16 4.5q5 5 11 7.5t15 5.5l4 2q-15 6 -21 11q-12 4 -17 8q-26 8 -42 37.5
t-16 59.5q0 13 2.5 21.5t6.5 13.5q2 7 2 11l-4 3q-8 0 -12 8l23 7h14q9 0 11 -4q11 -3 22 -5q18 -12 30 -21.5t30 -30.5q-1 -6 8 -9l3.5 -10.5t5.5 -6.5q3 -14 7 -27q-4 -7 -2 -17q-5 -15 -5 -18q-2 -1 -4 -9l1 -4q23 4 41 13q-6 23 -12 47q0 12 5 24.5l11 27.5l-5 12l1 3
q-2 7 -3 14l-11 4l-11 -1q-3 3 -21.5 14.5t-26.5 28.5l5 34q7 7 8 13q3 1 6.5 5t6.5 5q3 6 13.5 7t14.5 1q4 -3 19 -7.5t20 -3.5q11 -7 22 -13q11 -10 16.5 -16t5.5 -14q0 -5 -2.5 -10.5t-9.5 -14.5q-2 0 -2 -8l-2 -5l-5 -10l-2 -10q2 0 4 -5t5 -6q-2 -8 -2 -12l4 -5
q1 -5 3 -11t2 -9q-7 -6 -13 -12l-5 -5l-15 -45l5 -2l64 84q11 10 58.5 37.5t47.5 73.5q0 19 -4 30t-20 11q-5 -2 -10 -4.5t-5 -12.5l3 -10q1 -1 8 -2t7 -4l-1 -13l-10 -10q-15 0 -19 -2q-10 3 -12 6q-4 0 -7.5 1.5t-7.5 3.5q-7 4 -13.5 9.5t-6.5 14.5l1 5q-2 3 1 7.5t2 6.5
l4 8q3 3 7 9t8 6q5 7 11 6q1 1 12.5 4t14.5 3q8 0 20.5 -5t16.5 -5q3 0 9 -4t10 -4q7 -6 15 -12l14 -18l3 -10q4 -2 9 -12l-5.5 -16.5t-7.5 -13.5l-5 -16l-10 -10l5 -3h5q7 1 14 2.5t17 1.5q9 0 32.5 -6t25.5 -6l29 -13q2 -2 9 -4t11 -6h4q7 2 9 -3q3 -2 14 -2q6 0 12 -12z
M743 518q-11 2 -21 4q-4 2 -14 2h-26q-1 -1 -18.5 -3t-21.5 -3q-4 -4 -14 -7t-29 -5l29 -16l3 1q5 -2 11 -3q4 -2 14 -2t15 -3l18 3q11 3 33 13t35 14zM671 353q-5 0 -9 -6.5t-5 -7.5l-5 -9q-1 -14 -1 -22q0 -7 5 -10q1 -6 10 -6q16 0 21 3.5t12 18.5q3 3 5 8t3 7
q-3 5 -17.5 14.5t-18.5 9.5zM411 601l-8 -3q-2 -12 -2 -14l1 -9l10 11q4 8 8 10q0 3 -9 5zM351 429q0 9 -9.5 23t-17 21t-12.5 13.5t-9 12.5l-1 -6q1 -2 0 -11t-1 -14l2 -18q11 -24 22 -33.5t25 -20.5l1 7v26zM420 245l-12 1q-9 1 -17 3l-32 2q-13 0 -20 -4t-16 -4l-5 -1
l-8 -1q-10 -8 -19 -15q7 -17 35 -25t53 -8q8 0 16 1l27 5q6 4 27.5 9t27.5 8q-15 5 -31 12.5t-26 16.5zM158 399l-11 5q-2 -1 -2 -10l-4 -4l-1 -11l3 -12l7 2l4 9q5 4 5 12z" />
    <glyph glyph-name="bracketright" unicode="]" horiz-adv-x="349" 
d="M332 319l1 -3l1 -5q-7 -9 -7 -14l-3 -11l-4 -3q-1 -9 -3 -20t-8 -11l1 -4v-6l-4 -6q-2 -11 -1 -16l-5 -3q4 -2 4 -16t2.5 -18.5t2.5 -17.5q0 -10 -1 -14l3 -23l-2 -5l1 -5l-2 -18q2 -9 -3 -17q-2 -21 -8 -27.5t-10 -10.5q-7 -3 -21 -14t-19 -13q-13 0 -17 -3
q-10 -3 -11 -4l-26 -8l-23 -3l-10 4l-8 -2q-4 0 -14.5 3t-16.5 1l-8 3q-4 7 -11 5q-16 5 -24 7q-30 24 -50 48.5t-20 53.5q0 17 1.5 25.5t7.5 22.5q0 15 15 45t16 41l-2 22l-1 35q0 60 12 85.5t60 51.5q0 1 11.5 7t14.5 9l10 34l-1 85q0 23 14 43l-2 12q6 11 24 21t32 10
q32 0 61 -12t43 -36q-1 -10 -1.5 -15.5t-2.5 -12.5q-3 -1 -5.5 -5.5t-5.5 -4.5l-4 -8l2 -14l-2 -9l1 -3l-4 -9l3 -3v-19l-1 -11l1 -13l-5 -5l-2 -10l-3 -3q-3 -1 -5 -1q-3 -2 -1 -5l4 -2l-6 -26l2 -13q4 -8 20.5 -22.5t20.5 -24.5q5 -4 6.5 -11.5t2 -13t1.5 -10.5
q0 -11 -1.5 -18.5t-6.5 -12.5zM287 629l-14 1q-7 0 -12.5 -1.5t-11.5 -2.5q-11 5 -21 3q-13 -1 -25 -2q5 -7 5 -13l-1 -3l4 -5q6 -10 7 -15q0 -10 -6 -19l-4 -1l2 -10l-2 -10l-9 -11l-4 -26l2 -4q-7 -15 -13 -30l7 -2q10 -10 23 -10q6 0 18 3t17 3l3 -2v39q0 12 3.5 31.5
t3.5 24.5q4 11 12 24t16 21l3 8zM252 444l-8 1l-16 -8q-9 1 -17 3l-8 2l-19 13v-8q-7 -12 -10.5 -15t-11 -6t-11 -10.5t-3.5 -8.5q-5 1 -10 -6l-6 -3q-2 -3 -7 -14t-10 -18q0 -21 2 -26l-2 -3l3 -16l-4 -13l21 4q8 39 52 39q8 0 11 -2q8 0 12.5 -2t18.5 -13l1 -7l5 -7
q4 -7 9 -14h5l12 1q10 14 14 33t7 32q-3 8 -16.5 34.5t-13.5 37.5zM202 287q-4 6 -5.5 16.5t-1.5 23.5l-4 1l-11 -3l-5 -5q-1 -7 -12 -20t-19 -17l-6 -1q-6 0 -12 2.5t-8 2.5l-1 -3q2 -10 -1.5 -26t-2.5 -23l-5 -9l-8 -1l-3 -5l-4 -16l13 -6q5 -5 10 -5l6 -2q18 -2 31 -3.5
t22 -1.5l14 1q8 3 29 4t27 2q-3 11 -3 25t1.5 23t5.5 31q-5 5 -23 7.5t-24 7.5zM247 172h-5l-2 -4l-9 -1q-8 -11 -14 -14q-15 -1 -22 -1h-30h-10l-26 9q-9 2 -9 4q-8 3 -11.5 4.5t-9.5 5.5q-4 1 -10 5t-7 4q-2 -10 -6 -13l6 1q9 -2 12 -5q6 -3 12 -5l3 1q4 -2 11.5 -5
t9.5 -6q25 -4 47.5 -7t44.5 -3l26 9zM250 132l-7 2l-3 -4l-32 -4q-6 3 -12 1l-14 -4l-19 5q-2 -1 -11 -1h-11l-20 8l-7 4l-4 -1l-17 10l-23 9q-5 -8 -8 -20.5t-6 -17.5v-7l3 -11l-1 -10l1 -4q0 -2 4.5 -5t4.5 -6l37 -18q9 1 26.5 -2t19.5 -3q6 0 18 2t19 2t18.5 4t15.5 5
q13 10 20.5 22.5t7.5 26.5v17zM203 248l-1 -5l-10 -4h-19l-15 6q-6 7 -9.5 11.5t-4.5 9.5q7 18 20 25l16 4l8 -2l2 -2q4 -3 8 -5l3 -4l5 -2l4 -20q0 -7 -7 -12zM182 282h-5q-1 -1 -3 -3.5t-5 -6.5l5 -6l-3 -7l7 -3q8 0 8 7q0 6 2 9z" />
    <glyph glyph-name="asciicircum" unicode="^" horiz-adv-x="477" 
d="M503 773l-13 -7q-3 5 -21.5 19t-27.5 19q-2 6 -10 11t-10 7q-11 0 -19 10l-1 5q-3 0 -5 4t-8 4t-10 5l-21 18q-9 6 -14 6l-16 10l-30 -26q-3 -5 -6.5 -6t-3.5 -4q-6 -2 -16 -15t-16 -12l-7 -12q-8 -5 -31.5 -23t-25.5 -19l-6 2l-6 5l-7 3q-2 4 -2 5v12l8 7q0 7 4 13
q0 6 6.5 11.5t6.5 10.5q10 8 10 10l6 10t5 6q1 4 6 10t7 5l24 29q1 4 5.5 7.5t6.5 8.5l3 5q3 2 7 5l4 9q0 1 7 3t15 25q7 6 14 13q4 -1 7.5 2.5t6.5 7.5q11 -2 15 2q14 -8 16 -12t9 -16q6 0 10 -2l8 -4q2 -10 8 -8l8 -10l3 -9q5 -7 9.5 -12.5t6.5 -10.5l8 -11q30 -33 46 -52
t18 -29q7 -4 12 -10t5 -13t-3.5 -12t-4.5 -10z" />
    <glyph glyph-name="underscore" unicode="_" horiz-adv-x="523" 
d="M558 -75q-2 -4 0 -10t2 -8q-5 -1 -2 -18q-1 -7 -2 -15l-39 1h-19l-13 1q-22 0 -37 -2.5t-24 -2.5q-2 0 -12 4.5t-13 1.5q-10 -2 -15 1.5t-9 5.5l-5 -3q-6 -3 -16 -5t-26 -2q-6 -1 -18 -1q-8 0 -16 3q-9 -2 -17 -4q-9 2 -18 3l-25 -4q-5 3 -8 3q-9 -4 -17 -4l-51 6
q-1 -2 -8 -4l-12 3q-2 2 -7 1t-7 2l-4 2l-7 -1q-7 0 -10 6l-7 -10l-10 2q-12 3 -17 3t-9 -5q-3 -1 -7 3t-7 4q-9 -3 -18 -7l-29 -3l1 16v8v9v7v22q-2 6 -2 11q1 1 0 6q1 5 2 9l-3 24l31 -2q1 -2 17 -2l10 -1q5 -5 9 3l12 -2q4 5 13 5q6 0 19 -3t19 -3q14 0 17 4
q1 -2 9.5 -0.5t10.5 -0.5q4 1 8 1h6q11 0 28.5 -2.5t24.5 -2.5q0 -2 7 -4l5 1l18 6l5 -3h22q3 -7 12 0l21 -4l11 9l6 -3q2 3 8.5 2t8.5 2l14 1l32 -3l27 -2l71 3l38 -1q2 1 10 2t10 1l-1 -27q1 -4 2 -8.5t2 -9.5z" />
    <glyph glyph-name="grave" unicode="`" horiz-adv-x="388" 
d="M408 761q0 -4 -5 -6.5l-7 -3.5l-6 2q-9 4 -13 8q0 3 -2 4.5t-4.5 3t-5 3.5t-5.5 4.5t-7 6.5q-5 6 -9 6q-7 -3 -13 -5l-6 -1q1 4 -4 11t-9 7l-20 5q-8 10 -13 13l-5 8q-6 3 -7 7q-5 -2 -8 3t-5 6q-1 8 -1.5 12.5t-4.5 7.5l-18 12l-16 13q0 3 -12 10t-11 12q-6 6 -11 12
q-15 10 -15 13q3 1 15 19t13 21q7 9 17.5 15.5t21.5 12.5q7 -6 19.5 -20t15.5 -12q3 -2 6.5 -6t8.5 -7q2 1 8 -6t8 -7l9 -11q4 -2 7.5 -3.5t3.5 -3.5l8 -14q1 -6 9 -18q0 -3 8.5 -7.5t12.5 -9t15 -19.5q2 -7 2 -11q2 -5 4.5 -10.5t2.5 -9.5q0 -1 8.5 -12.5t8.5 -14.5
q6 -9 11.5 -17t7.5 -10q-8 -7 -8 -13z" />
    <glyph glyph-name="a" unicode="a" horiz-adv-x="584" 
d="M589 167q0 -3 -9 -14t-20 -23l-10 -23l1 -5q-2 -2 -3.5 -5t-2.5 -4l-42 -66q-15 -14 -29 -28l-12 -4l-5 -22l-4 -2l-4 -7l-10 -4l-4 9l-12 7q-4 7 -5.5 23t-1.5 43v20l-1 5l-8 -8l-6 -18q-5 -3 -11 -5t-12 -3l-9 -17l-11 3l-5 -2q-10 4 -17 -3q0 -9 -13.5 -12t-24.5 -6
l-25 -3q-7 0 -20 4t-19 4l-11 -2l-24 3l-10 5q-4 0 -9 2t-8 1q-18 11 -36 24t-33.5 35t-23.5 48t-15 55v39l5 12l3 23q4 6 9 19.5t7.5 18t13.5 15.5t14 16l18 10q15 15 35 20t48 5l3 2l30 1l48 3q37 0 70 -14q7 -3 15 -5l13 -6l5 3l-10 47l-3.5 17.5t-3.5 12t-1 8.5
q-2 1 -3 6.5t-3 6.5q-5 15 -8 21.5t-11 18.5q-3 1 -13.5 5t-14.5 8l-20 -2q-13 2 -19 4q-4 -2 -12 -2h-11l-14 -14q-11 0 -12 -7q-3 -2 -13.5 -3t-14.5 -1q-7 -5 -12 -12t-22 -13l-3 14q5 6 3 18q8 12 6 20q2 4 10 7t10 8q15 8 23.5 13.5t15.5 8.5t9 5q25 9 50 9l34 -2
l20 -6q12 -10 25 -9l9 -5q7 -2 14 -3l18 -14l16 -4l13 -5q1 -2 7.5 -6t5.5 -8q12 -6 30 -28t29 -40q-1 -7 9.5 -27t10.5 -21q0 -3 2 -8t1 -7q2 -2 2 -16q2 -7 4 -8q8 -15 13.5 -26t5.5 -37q0 -5 4 -12t4 -11q2 -4 2 -12v-11q0 -5 3 -14t3 -14v-17zM406 224q-4 11 -4 24
q0 17 1 35v13q-5 -1 -13.5 3t-15.5 8q-9 2 -17 4q-10 6 -17 5l-13 5l-4 -9q-1 -5 -9 -8.5t-10 -4.5q-2 -5 -8 -7t-13 -2h-10q-8 -5 -21 -6t-21 -15q-13 -2 -21 -7l-7 -13q-9 0 -13 -6q-1 -7 -13 -12l3 -7l-4 -8l2 -12q10 -4 10 -18q2 -1 3 -9q0 -9 -2.5 -18.5t-2.5 -12.5
q5 -3 5 -17q0 -11 -2 -19q4 -2 5.5 -9t3.5 -9q2 -17 15.5 -27t26.5 -19l14 3l6 -2l19 -2q5 0 18.5 2t16.5 2q2 3 11 3q6 1 7 2q7 -1 35.5 25t40.5 39v21q0 15 -1 31.5t-2 33.5q0 14 1 20z" />
    <glyph glyph-name="b" unicode="b" horiz-adv-x="580" 
d="M600 239l-3 -42q-1 -2 -1 -13q0 -5 -6 -17t-7 -17q-7 -3 -7.5 -12t-0.5 -12q0 -8 -4 -12q-8 -15 -12 -22q-4 0 -6 -6t-5 -7q0 -5 -6.5 -12.5t-7.5 -11.5l-9 -5l-3 -7q-7 -7 -15 -12.5t-14 -0.5l-8 -1q-8 -11 -14 -10q-5 -6 -12 -10.5t-19 -4.5h-13l-12 -9l-6 1l-10 -3
q-1 -2 -12 -3.5t-21 -1.5l-11 3l-14 -3l-13 4l-7 -2q-1 1 -8.5 2.5t-9.5 4.5l-25 3q-10 0 -33 5.5t-47 12.5l-7 2l-5 -4q-3 -20 -20 -28q-11 5 -21 45t-8 56q-2 3 -2 10q0 8 -2 11l1 5q-9 41 -18.5 86.5t-9.5 79.5q-7 15 -12.5 70t-5.5 81q0 6 -2.5 17.5t-2.5 16.5l-1 4
q0 35 1.5 78.5t5.5 52.5v4q0 2 2 7t1 8q7 31 15 62q-1 6 3.5 17.5t6.5 14.5l-1 3q0 10 10.5 32t11.5 26l5 1q12 0 20.5 -1.5t14.5 -5.5l34 -36q6 -10 19 -52q8 -3 14 -11.5t8 -17.5q10 -7 8 -12q5 -4 12 -9.5t5 -10.5q5 -2 12 -18l-3 -24q0 -15 4.5 -43.5t4.5 -31.5
q0 -2 -2 -6.5t1 -6.5q0 -13 -1.5 -21t-5.5 -16l2 -6q3 -1 17 0t26 2q16 0 32 -3.5t32 -6.5l7 1q7 -4 27 -8q8 -5 26.5 -11t34.5 -11l10 -14q5 -2 17 -17l5 2q9 -5 18.5 -16.5t14.5 -14.5l5 -8l11 -2q8 -7 13 -31t12 -33l1 -7q4 -4 4 -10zM522 205q-2 3 -2 10.5v8.5
q-1 7 -4.5 18.5t-3.5 13.5l-4 9q-4 15 -4 22q-5 12 -7 17.5t-4 10.5q-4 4 -8 12.5t-5.5 10t-7 6t-9.5 5.5q-18 14 -30 22t-43 28l-12 2q-4 3 -16 3h-26l-14 -5q-46 0 -46 -37l2 -17q-7 -2 -7 -17q-2 -7 -3 -13q-2 -2 -2 -14l-3 -8q3 -9 -1 -15t-2 -10q-8 -8 -8 -16
q-1 -1 -2.5 -11t-4.5 -14q-7 -4 -7 -13q-4 -2 -8 -27l2 -3q-4 -6 -2 -9q-3 -2 -1 -8.5t-1 -9.5q3 -3 0 -20t-5 -31q0 -5 -3 -12t-5 -13l3 -6q19 -10 39.5 -20t41.5 -10q20 1 41 3q7 2 21 -0.5t17 -2.5q13 0 19.5 1.5t15.5 7.5q7 1 20 12q3 4 16.5 14t15.5 20q10 8 24.5 26.5
t22.5 33.5q0 2 3.5 8.5t4.5 10.5q3 4 3 12z" />
    <glyph glyph-name="c" unicode="c" horiz-adv-x="487" 
d="M491 113q0 -4 -8.5 -17.5t-9.5 -15.5q0 -12 -4 -18.5t-15 -17.5q-8 -1 -27 -11t-28 -11l-5 -9l-8 -2q-3 -2 -16 -2q-7 -3 -7 -5l-7 -2l-3 -2l-8 1l-6 -5l-13 -1q-10 -2 -19 -4h-12q-8 0 -11 -2h-16q-10 0 -17.5 3t-13.5 2q-7 4 -18 6q-11 7 -13 9l-8 2q-2 3 -8 5.5
t-7 4.5q-44 41 -65.5 62.5t-35.5 53.5t-17 64t-9 44q0 38 9.5 72.5t28.5 82.5l22 36l13 18q2 4 24.5 15t26.5 12l18 16q8 5 16 9.5t19.5 10.5t25 12.5t16.5 6.5l7 -2h33.5t21.5 -2q8 -2 16 -3q13 -5 23 -10t25 -12q4 -6 8 -6q3 0 8 3q12 -9 26 -29t14 -33q0 -1 -2 -7.5
t0 -9.5q-6 -7 -9 -19q-6 0 -11.5 1.5t-8.5 10.5l2 11q-24 21 -54 26q-10 3 -19 7l-64 -11l-2 -4l-19 -13l-6 -10q-3 -1 -5 -8t-5 -9l-2 -6q0 -4 3.5 -13t4.5 -12q8 -10 14 -21t6 -19l-6 -18q-2 -8 -3 -16l-7 -12l-2 -8q0 -5 -5.5 -21t-6.5 -20q-2 -2 -2 -9t-1 -10
q6 -58 18 -86.5t49 -54.5q14 0 33.5 -4t38.5 -7q6 3 17.5 5.5t17.5 6.5q2 4 9 10t9 10q3 1 4 6t2.5 11.5t9.5 16.5q5 14 8 16l-2 11q1 7 2.5 10t-1.5 6q-2 5 0.5 12.5t1.5 10.5l2 4l6 6l14 -4l-1 -4q7 -10 10 -11l-2 -6l3 -9l1 -14l3 -1q6 -6 6 -12q0 -7 -5 -19t-10 -19z
" />
    <glyph glyph-name="d" unicode="d" horiz-adv-x="517" 
d="M512 410q-2 -10 -2 -15q0 -4 4 -7l-2 -4l1 -39q-2 -2 -1 -7.5t-1 -7.5q0 -18 -4 -30l2 -13q0 -13 -1.5 -24t-6.5 -14l1 -14l-9 -19l2 -7q1 -7 -0.5 -18t-6.5 -11v-7q-4 -4 -8 -15t-9 -16l-3 -15q-5 -5 -9 -10v-12l-2 -4l-6 -2l1 -5q1 -6 -0.5 -11.5t-2.5 -11.5
q-3 -4 -4 -14.5t-4 -15.5q-3 -13 -8 -16l-9 -10q-3 -1 -5 -6.5t-5 -6.5l-6 -19q3 -11 -7 -11l-6 -3l-6 4l-3 7q-2 10 -4 20.5t-4 19.5t-2 20l-3 2q-11 -13 -20 -15l-24 -17l-36 -3l-10 -3q-13 2 -16 -5l-26 -6q-12 -1 -18 -1q-33 0 -77 21.5t-55 47.5l-7 7v4q-4 3 -10 13.5
t-11 13.5q-3 5 -10 15t-7 17q-6 8 -11 32t-10 31l-2 17l1 15q6 3 4 12q4 15 9 31q-1 6 2.5 13t3.5 9q9 8 16.5 24.5t15.5 18.5q10 10 11 19q2 2 12 2l4 4l25 12q3 8 21 8l5 7h19q10 8 16 9.5l14 3.5q2 -1 9.5 0t10.5 -1l35 3q20 0 40.5 -2.5t31.5 -9.5q3 3 1.5 11t-2.5 10
q-1 14 -1 20q0 9 4 16q-3 5 -3 9q0 5 2.5 12t2.5 10q5 3 2 16q2 17 4 40t6 36l4 -1l-3 11q-1 7 1.5 18.5t2.5 15.5l-2 7q0 12 1 24l-6 3q1 10 2 21h5q0 40 22 74q0 4 2.5 11.5t6.5 17.5l9 8q22 -4 43 -28t21 -45q0 -3 6 -11t4 -15q2 -11 5 -23t3 -22q0 -8 6 -10v-12
q4 0 5 -6t5 -8l5 -17v-4q0 -7 6 -9l3 -12q3 -3 4.5 -10t2.5 -11q0 -9 3 -28t3 -30q0 -12 -2 -18l4 -10q0 -12 -0.5 -24.5t-4.5 -15.5zM376 120l-2 3q-4 12 -4 19l-2 4q-3 30 -5 61q-2 3 -3 12t-4 11q-3 11 -5 23l-3.5 21t-1.5 15q-2 2 -3 22.5t-2 44.5l-6 2q-4 -3 -14 -4
t-18 -1q-9 -9 -16 -7l-21 -8q-9 -6 -17.5 -12t-16.5 -12q-1 -4 -8 -5.5t-8 -3.5q-8 0 -13 -9q-4 1 -6 -5t-5 -7q-5 -10 -10 -11q-5 -9 -9 -16.5t-11 -16.5q-2 -6 -10.5 -17.5t-10.5 -17.5q1 -3 1 -11q0 -3 -2 -9l-1 -16l3 -11q-1 -2 8.5 -27t8.5 -31l8 -11q6 -1 9.5 -6
t7.5 -10l2 -12q16 -13 33 -25l13 -1q9 0 27 2t28 2l10 -2q48 9 80 50z" />
    <glyph glyph-name="e" unicode="e" horiz-adv-x="586" 
d="M591 134q1 -3 -1.5 -9.5t-1.5 -9.5q-3 -2 -5 -8t-3 -10.5t-2 -11.5q-10 -6 -11 -12l-15 -19l-10 -4q-10 -10 -14 -9q-9 -9 -14 -9q-4 -6 -16 -9t-16 -7q-3 1 -9 -5q-31 -7 -61 -14l-6 3l-2 -6h-11q-7 0 -8 -4l-3 -1q-12 4 -19 4q-1 2 -8 0q-8 3 -12 3q-10 -2 -16 -2
q-29 0 -59 8l-5 -1l-8 3q-4 -1 -9 2t-10.5 5t-16.5 8t-16 10q-7 2 -18.5 10.5t-19.5 17.5t-15 12q-2 5 -11 11.5t-13.5 10.5t-22.5 28t-17 29q-6 6 -7 11q-2 6 -3 13q-6 7 -8.5 18.5t-2.5 25.5q-2 2 -2 8t-3 9q-1 3 -1 17q0 6 -2 9q1 3 2 13t3 15v4q2 8 4 17q5 7 8.5 21.5
t19 43.5t42.5 59.5t55.5 51t53.5 26.5t31 7q16 7 38 10t45 7q12 -1 18 -2q5 -7 33 -12t36 -10q6 0 14 -4.5t12 -4.5q3 -2 11.5 -5t11.5 -8q13 0 30 -9t23 -19q6 -2 9.5 -10.5t6.5 -14.5q0 -4 3 -9t3 -7q2 -2 2 -8t3 -9l-1 -4q0 -1 4 -11t4 -16l-2 -5q2 -9 -2 -15.5t-6 -11.5
l1 -7l-2 -19q-11 -16 -21 -32q-3 0 -14.5 -9t-13.5 -10l-8 -1q-7 0 -8 -4q-8 -5 -12 -7q-7 0 -17 -4.5t-17 -4.5l-10 -2q-7 -2 -13 -4h-5l-6 -4q-15 -5 -23.5 -7t-19.5 -2q-13 0 -26.5 1t-26.5 2q-3 1 -9.5 2.5t-13.5 2.5q0 2 -8 2l-4 2q-1 0 -5 2t-6 1l-5 2.5t-2 1.5
q-4 0 -8 -6v-34q3 -1 4 -4.5t2 -4.5l4 -11l4 -12l4 -18l4 -18v-13q4 -7 8 -13l-5 -6q2 -5 13 -12.5t11 -14.5q0 -5 18 -17.5t22 -16.5l7 -2h13q8 0 12 2q15 0 36 4t46 9q14 9 20 10l11 18q1 3 1.5 5t3.5 6q0 9 1 15.5t3 13.5l2 8v9q-5 3 -11 10.5t-8 8.5v12q2 7 4 8h4l12 3
l2 7l21 3h4q1 -2 6 -3t7.5 -2t4 -1.5t6.5 -3.5q4 -11 13 -12t9 -8l3 -8q2 -9 2 -13zM527 357q-3 5 -3 14q0 12 -29.5 51.5t-40.5 39.5q-4 0 -14 -2.5t-15 -2.5l-8 -5q-8 -1 -11 -4q-10 -2 -19 -3l-7 -6q-15 1 -23 -10q-5 -10 -10 -13q0 -6 -8.5 -12.5t-8.5 -11.5
q-5 -2 -7.5 -10t-5.5 -10v-7q-5 -2 -7 -10t-5 -10q-1 -6 -5 -12t-7 -12q-5 -11 -9 -22q6 -8 16.5 -11t16.5 -5q11 0 21.5 -0.5t21.5 -0.5q9 0 27 2t28 2q8 2 19.5 5.5t21.5 7.5q5 0 11 3t7 3l34 15q4 0 9 4t9 3l3 4q-2 8 -2 26z" />
    <glyph glyph-name="f" unicode="f" horiz-adv-x="399" 
d="M427 709q-8 -8 -8 -23l-8 -18q-3 -3 -24 -3q-8 2 -15 4q-8 6 -13 10.5t-5 11.5t5.5 20t5.5 16q0 7 -6 13q-3 0 -9 2.5t-8 2.5q-5 0 -12 -6.5t-13 -12t-12 -7.5l-10 -23l-6 -3l-7 -28t-8 -19l-1 -4l2 -2l6 -42l10 -18q4 -8 7.5 -16t6.5 -17l4 -9q-5 -11 -1 -12.5t18 -1.5
q8 -1 10 -2h29q2 -2 11.5 -3t15.5 -2l15 7l2 -5q0 -3 -6 -7.5t-6 -7.5q-2 0 -8 -6t-10 -4q-7 -4 -26 -4h-20q-3 -5 -22 -5l-1.5 -16.5t-4.5 -16.5l3 -3q-1 -19 -1 -25q0 -10 2.5 -17t11.5 -20q3 -11 6 -21q4 -3 6 -9.5t4.5 -14.5t7.5 -16.5t5 -17.5q0 -15 -0.5 -30t-2.5 -17
q2 -13 -3 -18l-3 -8v-5q2 -8 -3 -13h-12l-1 -5v-6q-2 -3 -3.5 -6t0.5 -7q-3 -7 -6.5 -12t-4.5 -9q-3 -1 -4.5 -5.5t-10.5 -2.5l-6 -4l-7 -15q0 -4 -5 -6.5t-6 -4.5l-5 2q-2 -10 -8 -12q-4 -10 -8 -18t-7 -10l-5 -10q-5 -2 -5 -11q0 -10 -5 -11l-12 -25q-2 -2 -5.5 -9.5
t-8.5 -6.5l-3 -9v-11l-12 -3q-2 2 -2 16v25v14l-5 6l3 3v19l-3 3l2 8q-2 4 -2 13v11q-11 18 -14.5 63.5t-7.5 59.5l3 7q-1 7 -2 13t-2 21t-1 16v35q0 30 -0.5 68.5t-3.5 50.5q-3 1 -12 1q-14 0 -18 3l-7 -2q-4 1 -10.5 0t-14.5 -2l-10 3l-4 6q-21 2 -27 17q2 13 5 16t11 3h8
q3 0 15 6t14 8q11 4 28.5 7.5t26.5 3.5l3 7q2 10 4 21l4 13l-1 4q2 7 6.5 18t4.5 21q1 7 2 9l3 17q-3 8 11 35.5t38 68.5q3 2 9.5 7.5t14.5 14.5q1 3 7.5 5t8.5 5q6 3 25 3q5 0 21 3.5t25 3.5h17q2 -2 8 -1l3 -1q5 2 11.5 -2.5t10.5 -3.5q18 -6 24.5 -13.5t6.5 -26.5
q1 -2 1.5 -4.5t0.5 -5.5v-11z" />
    <glyph glyph-name="g" unicode="g" horiz-adv-x="534" 
d="M532 15l3 -19q0 -14 -26.5 -57t-36.5 -43q-1 -2 -8 -12.5t-14 -14.5l-23 -25l-10 2l-5 -7l-6 1q-24 -11 -43 -19t-27 -7l-33 -13q-3 0 -6 -3.5t-7 -1.5q-5 -2 -10.5 -7.5l-7.5 -7.5l-1 -3l-14 -4q-3 -6 -14 -4q-9 -1 -21 2l-13 -1q-4 -4 -11 -4l-15 1q-4 2 -9 3t-8.5 1.5
t-12 2.5t-11.5 2q-13 7 -19.5 11.5t-11.5 12t-11 11.5q-8 15 -11.5 22t-4.5 17l-6 7l-1 8q0 34 24 49.5t63 15.5q19 0 23 -7q4 0 7.5 -5t5.5 -5q0 -6 -5 -12.5t-9 -12.5l-9 -2q-7 7 -12 7q-10 0 -12.5 -19t-2.5 -22q6 -17 16.5 -34t24.5 -17t35.5 5.5t41.5 10.5q1 3 2 5.5
t5 1.5q1 7 14 7q4 10 4 17q4 9 9 17l3 6l-1 6q0 9 6 20.5t7 17.5q4 2 9 9.5t6 8.5l11 43l-1 7l4 28q5 15 6.5 32t1.5 43v36.5t3 37.5l-3 2q-6 -10 -19.5 -14.5t-28.5 -4.5l-10 -2q-8 -7 -17 -7q-2 0 -20 3.5t-27 3.5q-5 0 -9 -2q-7 3 -28 5t-31 9l-4 -1q-34 0 -72.5 35
t-46 55t-12.5 42t-9 29q8 64 16 90.5t43 53.5q1 4 12 15t20 19q5 1 11.5 5t14.5 9q2 8 10 8q3 4 13 5t13 2h24l5 2l13 -2q20 4 36.5 6.5t31.5 2.5q10 0 13 -3q14 0 22.5 -5.5t57 -36t51.5 -31.5q4 -7 16 -17l7 -2l11.5 -11.5t4.5 -7.5q0 -6 5 -11l9 -4l5 -8l6 -3l-1 -3
q0 -2 4 -5t3 -6q4 -3 6 -12t2 -20q0 -7 -1 -8l4 -14l-2 -2q12 -18 16.5 -35.5t4.5 -37.5q-1 -22 -1 -35q1 -13 -2 -19l15 -57l-4 -31q4 -22 9 -43q-2 -14 -4 -28.5t-8 -18.5zM375 435l-31 36q-3 3 -11 6t-12 6q-7 2 -22 4t-32 5l-7 -2q-15 -12 -15 -15q-6 -1 -10 -9l-5 -10
l-9 -1q0 -3 -4.5 -6.5t-4.5 -6.5q-13 -8 -19.5 -16.5t-24.5 -35.5l-8 -6l-15 -19l1 -3q-3 -6 -4.5 -9.5t-5.5 -8.5q-5 -3 -5 -16q-1 -3 -1.5 -11.5t-0.5 -12.5v-14q1 -10 3 -20l18 -42q0 -12 10 -15q-1 -2 13.5 -16.5t20.5 -18.5l3 1q12 -2 25 -3l13 -5q22 -2 33 -2
q22 0 45.5 15t31.5 34q13 10 25 26v7q0 7 3.5 27t3.5 30t1 20t2 21l2 3q0 4 2 10t4 10q0 18 -5 34t-8 29z" />
    <glyph glyph-name="h" unicode="h" horiz-adv-x="533" 
d="M527 253l-2 -16q-5 -5 -12.5 -25.5t-14.5 -24.5q-5 0 -10.5 -5.5t-6.5 -5.5q-4 -8 -7 -16q-4 -6 -14 -13.5t-14 -11.5q-13 -5 -14 -11q-7 -3 -22 -22.5t-20 -22.5q-11 -13 -16 -19l-1 -3l-18 -24t-10 -16q-4 -1 -6.5 -4.5t-5.5 -9.5l-5 -3q-12 3 -12 7q0 2 1.5 5.5
t1.5 5.5l6 24v4q0 7 4 18t5 14q0 8 5 24t5 24q0 7 2 14t5 14q0 3 2 11t1 12l4 11l-1 3q2 7 4 15l2 4v8v28q0 14 -0.5 27t-2.5 20v16q0 5 -2 15v4q0 11 -2 15q0 9 -1 18.5t-2 19.5q-1 2 -7 19.5t-7 22.5q-4 4 -10.5 9t-16.5 3l-6 1l-9 -2q-2 -3 -13 -7.5t-24 -6.5
q-12 -7 -18.5 -15.5t-13.5 -11.5l-6 -10q1 -21 1.5 -35t5.5 -27l-1 -17q-7 -9 -6 -15q-2 -3 -7.5 -17t-4.5 -16l-13 -35l-1 -14l3 -8q-1 -3 1 -8.5t0 -8.5q1 -5 1.5 -16t0.5 -20l-3 -6l-3 -25l-13 -17l-4 -10q-4 -4 -5 -18.5t-1 -33.5v-12l-5 -9v-15q-14 3 -24.5 26.5
t-20.5 54.5q0 4 -4.5 10t-4.5 9q-4 6 -7 17t-6 30v4q-2 9 -3 19q-14 31 -14 75q-1 7 -2 8q1 3 1 12q0 8 -1.5 20.5t-2.5 27.5l2 2l1 48q2 5 0.5 14t-1.5 13q-4 13 -5 33.5t-3 32.5l1 19q0 22 5 46t8 39q-1 7 3 15t6 11l-1 3q0 6 4 10l6 18q0 4 2 8t1 6l9 33l3 12q2 1 2 8
q0 3 4.5 9t2.5 11q5 4 12 19t11 18l-2 9q2 14 5 28q8 0 21.5 -13t15.5 -14q1 -3 4 -8.5t2 -9.5q3 -9 14 -36t13 -43l-2 -5l12 -37q2 -2 2 -10q1 -5 2 -6l2 -17q-1 -3 5.5 -23.5t6.5 -21.5v-19q0 -11 -4 -15q-3 -17 -11 -32q11 8 17 6q9 6 20.5 7.5t19.5 1.5q6 0 9 2h8
q18 0 40.5 -4t27.5 -7l25 -9q7 0 18.5 -9t14 -11.5t23.5 -14.5t26 -24q4 -4 8.5 -9t5.5 -10q4 -2 7 -9t5 -9l-1 -4q0 -4 4 -12q7 -3 10.5 -23t2.5 -32q-1 -23 -2 -45z" />
    <glyph glyph-name="i" unicode="i" horiz-adv-x="261" 
d="M211 648q-9 -6 -15.5 -10.5t-13.5 -4.5q-9 0 -19 0.5t-13 5.5q-3 0 -9 3t-9 3q-18 8 -28.5 26.5t-10.5 39.5q0 15 9 41t19 26l14 -6q3 3 8.5 5t16.5 2h6q25 -9 40 -15t24 -27v-33q0 -14 -7.5 -30t-11.5 -26zM243 314q-1 -1 -4.5 -16t-4.5 -21q4 -8 4 -14t-3 -18t-3 -20
l2 -6q-2 -7 -4 -7q3 -14 -3 -17q4 -4 4 -9q-4 -3 -4 -10q0 -6 -3 -7l-4 -14l-5 2l-10 -26l-7 -11l1 -14q0 -9 -5 -13q-3 -6 -4 -13.5t-2 -14.5q-5 -3 -5.5 -14t-7 -15.5t-4.5 -12.5l-4 -11q-1 -1 -4 -7t-7 -6l-6 5l-2 15q0 12 -4 35t-4 34q0 12 -9.5 29.5t-30 57
t-20.5 108.5q-1 1 -2.5 18.5t-1.5 30.5l2 28q-2 3 0 19t4 18q0 20 26.5 75t42.5 71l13 -8l4 -12l14 -10q0 -3 6.5 -7.5t6.5 -10.5q1 -2 5.5 -5.5t7 -9.5t6.5 -13q4 -13 17 -24q0 -6 4 -18t4 -20l3 -14q-1 -5 1 -13t2 -12l3 -13q-3 -7 -4 -18t-1 -21zM176 738q-4 0 -8 -4
l1 -6q0 -4 -5.5 -12.5t-5.5 -12.5q0 -9 16 -16q5 4 9 16t6 14q-3 8 -6 14.5t-7 6.5z" />
    <glyph glyph-name="j" unicode="j" horiz-adv-x="260" 
d="M226 696l2 -10q-1 -9 -7 -9q-7 0 -9.5 -2t-2.5 -18q0 -7 -3 -11t-8 -2q-2 -7 -7 -9.5t-13 -2.5q-11 0 -21 5t-20 11l-5 8q-9 0 -17 11.5t-17 38.5v15q0 17 2.5 29.5t10.5 22.5l12 6l12 -4l2 -4l26 8h32l6 -8l17 -9q1 -9 3.5 -16.5t7.5 -11.5l2 -23zM255 109l1 -6l-3 -12
l3 -42q-2 -4 -2 -12v-12l-7 -15v-11q2 -10 2 -18q0 -10 -4 -14v-18q0 -4 -9 -15q-5 -18 -10 -37l-4 -2h-6q-6 -3 -6 -5q-7 -7 -6 -16l-6 -14q-8 -5 -12 -5l-2 -5q-3 -1 -7 -7t-8 -16q-11 0 -14 -8l-5 -5l-1 -8l-4 -8l-27 -12q-7 0 -12 5q-4 -14 -18 -23q-5 0 -11 -4t-8 -4
l-8 -5h-12q-18 0 -22 5l-6 -2l-2 2h-11t-9 5l-7 3q-18 -1 -42.5 23.5t-26.5 46.5q-6 12 -7 24.5t-3 20.5l4 14t9 21q4 1 12.5 13t16.5 14l7 5h19.5t17.5 -3l6 -10l-1 -4q0 -4 5 -12l-7 -16q-7 5 -13 4l-2 -6l-8 -10q-2 -6 -2 -16t-1 -17q0 -16 5 -31l10 -4l-2 -8l8 -7l3 -7
l6 4l6 -4l4 4l2 -4h17q3 2 3 11l3 7l4 -6l2 4q9 13 15.5 21.5t15.5 14.5q0 14 9 48t11.5 56t3 73.5t0.5 69.5v30.5t1 22.5q-1 6 -1 20v25q1 2 2 23.5t2 25.5t1 9v7q0 7 2 10q-1 12 -2 25q4 19 8 43t4 41l2 18l6 24q0 16 2.5 27.5t8.5 27.5q0 35 20 44q10 -14 15.5 -21
t14.5 -14l11 -16q-2 -11 1 -19l-3 -14v-11q4 -6 8.5 -17.5t6.5 -19.5l-1 -7q0 -11 4.5 -35.5t4.5 -32.5q1 -2 1 -7v-7l16 -56v-17q0 -3 1.5 -5t2.5 -3q0 -9 5.5 -25.5l12.5 -37.5q-2 -10 -3 -24t-1 -27zM175 722l-15 -7l-1 -25q1 -3 3 -4.5t3 -1.5q4 0 12 7t8 12q0 6 -10 19
z" />
    <glyph glyph-name="k" unicode="k" horiz-adv-x="494" 
d="M527 -8l-11 -2q-6 6 -14.5 13t-20.5 10q-84 59 -167 119q-20 17 -37.5 39t-31.5 46q-3 -8 -4 -23.5t-3 -22.5l1 -7l-11 -14l-2 -8l-6 -2l-6 1v-5l-10 -5l1 -9v-19l1 -13q2 -8 2 -13l-1 -3l-9 -7q-1 -3 -6.5 -6t-4.5 -7q-13 -13 -26 -25l-7 -8q0 -8 -8 -12.5t-15 -8.5
q-11 0 -14.5 13.5t-3.5 32.5v16q0 21 -8.5 60.5t-8.5 56.5q0 5 -2 18.5t-4 15.5v4l-2 18l-7 53q1 12 -1.5 39.5t-2.5 31.5v54q0 14 0.5 26t3.5 23q0 9 4.5 28t4.5 25q1 12 3 26t5 30l-1 4q2 17 5 34l36 86q1 8 3 16.5t5 24t8 36.5q12 6 16 6q9 -1 19 -1l6 -6l10 -18l-1 -13
l10 -21l-2 -17v-19l3 -10v-11q1 -6 4.5 -12.5t5.5 -11.5t1 -10l3 -6v-12q0 -7 -3 -10l3 -25q6 -5 4 -17q4 -4 6.5 -12t3.5 -11t1 -9q-1 -10 -1 -16l1 -3q0 -6 2 -10.5t3 -6.5l-3 -11q8 -12 6 -16l4 -6q4 -14 2 -21q2 -4 3 -14.5t1 -15.5q-2 -12 -3 -23l-3 -9h4q14 18 103 81
t112 71l4 -6q12 6 19 6v-4l-18 -12l-14 -19q-2 -1 -4 -6t1 -9q0 -5 -3 -12t-3 -11q-3 -2 -1.5 -6.5t1.5 -5.5l-1 -3q-2 -14 -3.5 -21t-5.5 -10l1 -7q-4 -4 -4 -6q-4 0 -9 -5t-7 -5q-1 -2 -7 -6t-4 -9q-9 -7 -18 -13q-6 -11 -10 -13.5t-11 -5.5t-8 -7l-7 -6q-4 -9 -17.5 -27
t-16.5 -17q2 -3 8 -7t6 -8q4 -1 8 -6.5t7 -5.5q3 -4 25 -20.5t23 -22.5q4 -2 8 -7t6 -10t8 -7.5t7 -4.5q-1 -4 4 -5t5 -4q9 -4 11 -9l-2 -3q3 -2 10 -4.5t5 -9.5q1 -3 4 -5.5t6 -4.5l9 -25l-5 -7l6 -5q-1 -4 -1 -8l-7 -4l1 -17l-2 -4q2 -1 3.5 -6.5t4.5 -6.5l7 -12l-2 -3
q0 -5 8 -9q8 -8 13 -7q8 -8 16 -24z" />
    <glyph glyph-name="l" unicode="l" horiz-adv-x="247" 
d="M230 316l-4 -10l1 -5l-7 -33l-4 -16l-6 -9q0 -7 -3.5 -12.5t-9 -5.5t-6.5 -4l3 -4q-5 -7 -7 -8v-12q-7 -10 -14 -19l-5 -27q0 -7 -6 -46.5t-8.5 -42t-3.5 -9.5t-5 -9q-12 -15 -12 -31q0 -6 4 -26l-8 -10q-5 3 -11.5 13t-11.5 17l-3 11q-3 4 -5 9.5t-3 11.5l-2 12
q-3 6 -9 32t-8 34q-2 2 -2 8.5t-2 9.5l2 6l-2 3l1 125q-1 4 -4 43t-2 44q-1 4 -2 29.5t-1 47.5v9.5v2.5q-2 4 -2 14q0 7 -2 10v12q0 6 -2 8v16q0 7 3 15q0 23 1.5 45.5t4.5 32.5v6q0 3 1 11.5t3 18t5 18.5q0 16 15.5 60.5t25.5 60.5l6 4q11 -2 24 -10t10 -18l9 -11l10 -12
l7 -15q0 -10 7 -15q0 -2 4.5 -8.5t4.5 -8.5q4 -3 7.5 -9.5t4.5 -7.5l7 -20l-2 -7q5 -4 5 -23.5t3 -24.5l-2 -7l5 -11q-4 -7 4 -15l-2 -14l4 -7q3 -12 3 -18l-3 -26l1 -7l-1 -10q1 -7 1 -11q0 -8 -5 -12q3 -12 3 -18t-3 -9l-1 -4q0 -3 2.5 -8.5t1 -13.5t6.5 -12l2 -6
q0 -19 -5 -32t-5 -30z" />
    <glyph glyph-name="m" unicode="m" horiz-adv-x="917" 
d="M917 222l2 -8q-1 -12 -1.5 -17t-15.5 -12l6 -5l-3 -6l-5 -2l1 -6l-12 -8q-12 -2 -14 -7q-3 5 -16 5l-11 -10l5 -2l-16 -8q-32 -45 -63 -90q-7 -5 -17 -18t-21 -29l-13 -3q-5 8 -8 19t-2 21l-2 5q0 4 1 9.5t0 7.5l1 3v15q0 7 3 13l3 19q0 23 7.5 81t7.5 80q-2 3 -2 14
q0 6 -2 9q-1 9 -2 19q0 10 -3.5 29t-3.5 26l-5 13q-3 12 -5 25q-9 19 -18 39t-22 34q-3 0 -6.5 -5.5t-6.5 -5.5q-3 -4 -9 -8.5t-12 -9.5l-3 1q-6 -4 -11 -7l-4 -4q-3 1 -6.5 -0.5t-9 -10t-16.5 -13.5q-1 -2 -7.5 -6t-4.5 -9q-13 -13 -26 -25l-3 -7q3 -8 12 -12l15 -28l-4 -7
l2 -9q4 0 4 -7.5t5 -8.5q0 -7 2.5 -17t2.5 -15l2 -11q-4 -4 -6 -10.5t-3 -12.5v-4q0 -6 -7 -19t-13 -18v-5q-1 -1 -8 -2t-8 -6q-11 0 -12 -5l-3 4q-5 -18 -12 -30q0 -9 -6 -17q-6 -11 -8 -17l-6 -5q-1 -5 -3.5 -13t-6.5 -17q-5 -7 -7 -17l-10 -7l-6 -13q-4 -1 -4 -10
q-3 -6 -5 -6q1 -5 -3 -11t-4 -7l-7 -11l-10 2l-2 -12q-7 1 -11 8t-8 13l-3 11q-3 7 -5 16t-3 12t-1.5 10.5t-4.5 8.5q1 20 3 40q-2 12 -2 21q0 20 2.5 43.5t6.5 53.5q0 15 -5.5 52.5t-5.5 49.5q-2 10 -4 17.5t-2 15v10.5q0 12 -3 24.5t-4.5 16t-2.5 11.5t-5 12l-2 7
q-6 7 -12 15l-1 4q-8 10 -14 16.5t-15 6.5q-4 0 -10.5 -4t-11.5 -7q-3 -6 -7.5 -8.5t-5.5 -6.5q-12 -4 -17.5 -14.5t-11.5 -13.5q-1 -3 -9 -10t-8 -14q-9 -13 -15 -18q1 -11 -11 -21l1 -4q0 -4 -2 -8l-4 -8q2 -7 -1 -26.5t-3 -24.5t2 -20.5t1 -17.5q2 -5 2 -15v-23
q-4 -9 2 -13v-8q1 -4 -3 -12v-13q0 -8 1 -13l-7 -10v-10q-1 -7 -3 -9q-12 -30 -18.5 -47t-5.5 -23l-5 -10l-5 -4l1 -8q6 -9 2 -13q8 -3 8 -8t-6 -7.5t-13.5 -5t-12.5 -2.5q-10 0 -20.5 22.5t-10.5 34.5q-2 4 -3 19.5t-3 21.5l1 5q0 5 -3 20.5t-5 16.5q-5 9 -1 14l-6 20l1 6
l-6 22l-4 12q-2 13 -3 26q-2 3 -2 11q0 6 -2 9q0 15 -2 19l-3 47q0 77 5 124.5t28 79.5l17 1q14 0 24.5 -9.5t10.5 -20.5q0 -6 -6 -9q6 -13 12 -25l8 -9q0 -5 4.5 -11.5t6.5 -9.5q0 -6 9 -17l23 25q12 16 44.5 47.5t43.5 29.5q7 2 12 3.5t8 1.5l30 -6q2 -2 8.5 -3t8.5 -5
q19 -5 37 -14h4q6 0 13.5 -6t11.5 -7q6 -5 12.5 -9.5t9.5 -10.5q4 -1 10 -7t9 -7q10 -11 20 -21q5 0 8 10q7 8 54 53.5t48 47.5q4 2 11 11t21 9q8 0 11 -4l3 1q7 -3 18 -7t25 -9l10 -5q3 1 9.5 -2t10.5 -4q11 -9 18 -8q23 -8 45 -30.5t44 -44.5q2 -5 10 -12t8 -13q3 0 4 -6
t5 -6q0 -6 7 -11q0 -4 3 -5t3 -4t-3 -9l7 -5q1 -4 5.5 -7t4.5 -8l1 -14q9 -5 6 -13l5 -7l-2 -6q5 -2 7.5 -13.5t4.5 -20.5l-1 -4q0 -1 2 -5.5t1 -7.5l5 -6q-5 -5 2 -15v-12q0 -10 -5 -15z" />
    <glyph glyph-name="n" unicode="n" horiz-adv-x="588" 
d="M588 225v-7q0 -10 -6 -14q0 -5 -5.5 -12.5t-3.5 -13.5q-3 -6 -4.5 -10.5t-6.5 -3.5l-10 -21v-10q-5 -2 -11.5 -11t-14.5 -6q-4 -5 -6.5 -8.5t-6.5 -1.5q-6 -2 -6 -14q0 -11 -6 -12l-3 -8l-11 -3q-1 -3 -3 -6t-4 -5q-9 -5 -18 -9q-9 -9 -14 -7q-10 -10 -13 -9
q-1 -4 -4.5 -2.5t-8.5 -10.5l-5 1l-4 -3q-4 -10 -7 -19l-15 -17q-1 -5 -14.5 -22.5t-18.5 -17.5l-5 11q0 2 2 8t1 9q3 8 6 15l3 10v5q1 9 3 18q3 3 3 11q0 11 3 15v4q0 5 3.5 14t3.5 12q2 3 3 12.5t3 15t3 9t2 7.5v7q0 17 1.5 37t3.5 25l1 55v24v14q0 49 -1 62.5t-5 18.5
l1 6l-4 30q-2 1 -3 7t-3 7q-3 17 -7 27t-15 15l-3 -1l-28 16l-6 -3q-6 8 -11 0q-10 0 -12 4h-13q-7 0 -8 -6q-5 -5 -33.5 -25.5t-30 -23t-4.5 -5.5t-7 -1q-2 -3 -2 -14q0 -4 -3 -8l-6 -8l-6 -11v-12q0 -5 -3 -10l3 -8v-31q0 -6 -2 -26t-4 -23q1 -9 3 -17q-1 -4 3.5 -13.5
t2.5 -14.5q3 -7 6 -13q3 -3 1 -10t1 -11q1 -7 -5 -19l-1 -9q0 -6 2 -18t2 -19l-1 -11q-2 -3 -2 -10.5v-10.5q0 -6 -8 -21t-14 -27l-6 -4v-5q-1 -6 -1.5 -10t-0.5 -9t-4 -7q-9 7 -15 11.5t-7 12.5q-2 1 -3 5t-3 6q-2 9 -3 18q-3 3 -3 11q0 7 -3 10l1 6q-2 14 -4 29q-2 2 -3 9
t-3 9v7l-3 8q0 14 -3 18v20q0 6 -2 18l2 11q-2 15 -3 31l-6 14l-6 33q-2 2 -3 8t-3 7l1 5l-4 24q-2 3 -3 11t-3 11l1 109q0 6 4 19t4 21l3 8l4 14q4 7 7.5 13t9.5 6q3 -2 5 -3t6 -2.5t9 -8.5t8 -12.5t9 -15.5q0 -4 3 -13.5t1 -13.5v-14t4 -10q35 32 68.5 55t61.5 26l11 3
l13 -1q9 -2 13 -6q18 1 27 1q6 0 16.5 -3.5t10.5 -8.5q14 -4 20 -9q5 -7 22.5 -18.5t20.5 -15.5q4 0 20.5 -12.5t18.5 -17.5q11 -6 17 -9.5t8 -8.5t5 -4q2 -5 21.5 -23t19.5 -29q8 -6 8 -13q5 -6 11 -13t5 -16q4 -4 9 -29q3 -4 4 -14.5t4 -15.5q0 -12 3 -15q-2 -9 -3 -17
t-3 -9z" />
    <glyph glyph-name="o" unicode="o" horiz-adv-x="621" 
d="M604 219q2 -8 -1 -22q2 -4 -1.5 -12.5t-2.5 -12.5q-5 -5 -13 -27t-6 -25q-3 -3 -5 -17t-11 -16q-9 -13 -18 -16q-9 -10 -16.5 -16.5t-14.5 -4.5q-2 -2 -2 -12q0 -7 -5 -7q-3 -13 -12 -17.5t-23 -4.5l-5 -2q-3 2 -6 0.5t-7 -5.5q-17 0 -22 -3l-11 2q-2 -4 -9 -3t-9.5 -1.5
t-14 -2.5t-15.5 -5h-12q-18 0 -48 3.5t-39 3.5q-8 1 -9 3q-4 -1 -10 1.5t-45 20.5t-68.5 45.5t-69.5 102.5q-3 10 -5 20q-3 3 -3 10q0 6 -3 8v13v6q-2 4 -2 5l-1 41v15.5t4 20.5q2 2 2 12l3 6q-1 4 2 11t2 11q7 21 20 40t32 36l-1 5q0 3 5.5 6.5t25.5 24t41 41.5t32 21
q1 3 4 3t4 -1q9 4 16.5 5t15.5 1q4 0 16 -1t20 -1q5 3 16 3.5t15 2.5h6q17 -2 34 -3q1 -6 7.5 -6.5t12.5 -0.5q5 -12 14 -8l10 -1q13 -2 24 -3t20 -2t14 -7q2 6 8 6q5 -7 16 -13.5t13 -10.5q7 0 15 -4t10 -4l12 -14q19 -5 42 -61.5t23 -109.5q0 -17 -1.5 -28t-9.5 -45z
M555 320l-15 47q-6 5 -12 19t-13 20q-1 5 -9 14t-11 12q-22 12 -34 18.5t-17 5.5q-1 1 -8 2.5t-10 3.5h-4q-6 -1 -16 1.5t-18 5.5q-3 -6 -17 -3q-3 -7 -12.5 -12t-15.5 -7l-8 -6q-3 -9 -9 -8q-2 -2 -5 -8.5t-6 -5.5q-15 -25 -24 -40.5t-16.5 -33.5t-6.5 -22q-3 -2 -3.5 -8
t-2.5 -8l1 -3q0 -3 -5 -7t-3 -8q-4 -5 -5 -20t-3.5 -19.5t-2.5 -6.5l2 -3q-1 -6 2 -18.5t1 -18.5q3 -12 4.5 -19t1.5 -16q0 -6 6.5 -16t11.5 -12q1 -4 5.5 -8t8.5 -7q5 -13 17 -20t17.5 -9t15.5 -4q11 -3 22.5 -5.5t20.5 -9.5q12 -4 19 -4l29 6h4q3 0 9.5 2.5t10.5 2.5t13 5
t14 2q6 2 12.5 9.5t14.5 16.5q4 9 12.5 19.5t15.5 15t13.5 23t11.5 33.5q0 16 -2 51.5t-2 39.5l3 12z" />
    <glyph glyph-name="p" unicode="p" horiz-adv-x="568" 
d="M562 300l1 -5l-10 -31q-5 -9 -8 -15t-12 -8l-2 -11l-9 -2l2 -3q-1 -4 -14 -12.5t-16 -11.5l3 -5l-3 -7q-7 -4 -16.5 -13t-15.5 -12h-4q-4 -1 -28 -14t-30 -12q-12 -14 -33 -14q-24 0 -50 8.5t-36 11.5q-1 4 -8.5 6t-9.5 4l-4 -4q0 -10 1 -21t1 -13q0 -6 -2 -18
q4 -2 4 -9.5t3 -10.5l-8 -10q1 -9 3 -18q2 -10 -3 -21q3 -5 4 -10.5t1 -12.5q-4 -2 -4 -8t-3 -8l-4 -15l3 -7q-2 -7 -8.5 -20t-6.5 -17q-2 -1 -4 -7t-6 -8l-5 -10l-4 -2v-18l-5 -9l1 -4q0 -3 -3 -9t-3 -10l-7 -12l2 -3v-51l-7 -5h-6l-9 -7q-10 5 -18.5 20.5t-11.5 29.5
q-17 29 -30.5 60t-13.5 52q-2 13 -6 29.5t-8.5 36t-3.5 22.5l-5 10q-3 9 -5 19q-4 11 -5 26t-1 34q0 18 1 53.5t1 52.5q4 24 9 48v4q8 22 17 44l-2 16q0 6 4.5 37.5t9 51t17.5 54.5t25 52l14 -1l5 5l9 4q15 -10 18 -23q2 -1 4 -6.5t5 -6.5l66 34q22 3 45 7h15t11 -2h6l12 7
l29 -17q9 -1 25 -10.5t25 -11.5q20 -18 41.5 -37t42.5 -32q-1 -5 3.5 -10.5t5.5 -7.5q2 0 5.5 -6t5.5 -7l8 -14l-1 -24l5 -8q-1 -4 1.5 -11t1.5 -9l1 -9v-18q0 -10 -5 -14zM500 358l-3 4q0 16 -8 37.5t-19 28.5q-9 12 -42.5 35t-46.5 23l-5 -2l-6 1q-16 -2 -38 -9t-26 -14
l-14 -4q-8 -4 -15 -7l-5 2q-8 -8 -12 -11q-8 -3 -18 -9l-1 -3l5 -11v-4l3 -13q-4 -4 -2 -11t2 -10t3.5 -15.5t3.5 -19.5l5 -7l3 -26l-6 -11q5 -15 5 -38v-21q4 -8 4 -13q-4 -4 -4 -14l1 -5q18 -6 45 -11.5t51 -9.5l6 1q7 4 19 2q4 5 17.5 13t18 10.5t11.5 5t10 8.5
q8 0 19 13.5t21 25.5q3 6 8.5 26.5t4.5 24.5q2 1 2 9q0 6 3 8v21z" />
    <glyph glyph-name="q" unicode="q" horiz-adv-x="572" 
d="M606 -3q0 -9 -5.5 -17t-7.5 -12q8 -4 8 -9q-4 -2 -5 -8.5t-4 -8.5l-7 -11q-3 -1 -10 -8t-13 -7q-5 -7 -8.5 -12t-6.5 -7q-2 -12 -10 -24q-1 -8 -12.5 -22.5t-12.5 -20.5q-4 -2 -11 -9.5t-9.5 -9t-6.5 -8t-9 -5.5q-4 -1 -4 -8t-13 -10l-7 2q-5 -10 -11 -6l-8 -1
q-9 0 -14 4l-11 4l-5 -1q-6 0 -11 10q-1 13 -1 19q0 8 3 14l1 15l-1 12q-2 4 -2 12q0 7 -2 10l-1 23q-2 3 -2 9q0 8 1 12q-2 6 -2.5 19t-1.5 19q6 5 -1 23l3 7l-2 4v56l-5 32l2 26v17l-6 8l-14 -8q-2 0 -14.5 -3.5t-18.5 -2.5q-3 -3 -10 -7t-8 -6l-15 -3q-16 1 -32.5 3.5
t-24.5 2.5q-13 0 -16 5q-4 -2 -8.5 1t-7.5 2q-30 12 -46 22.5t-30 30.5q-4 1 -6.5 6t-5.5 6q-10 15 -22 34.5t-9 27.5q-5 5 -9 14t-5 11q-4 17 -4 24q-2 11 -4 23l-1 23l2 21q8 8 3 12l5 10q3 3 6.5 7.5t3.5 9.5q8 16 17 32q4 2 7.5 9.5t5.5 9.5q8 3 19.5 16t15.5 15
q2 6 10.5 12t18.5 14l3 -1q2 0 6 3t7 2q3 6 11 7.5t15 3.5l8 -1q2 1 9 2l13 -2q10 -2 20 -3q9 -5 29.5 -11.5t31.5 -12.5q12 0 16 -6q15 -2 41 -13.5t32 -13.5q6 5 6 23q0 5 -1 15.5t-1 13.5q0 8 1 16l2 5l4 1q5 0 12.5 -6t13.5 -7q1 -3 8 -5t7 -6q6 -8 15 -13l6 -12
q3 -8 6.5 -14t-1.5 -11q1 -1 1 -13q0 -5 4 -6q0 -7 4.5 -18.5t4.5 -19.5q0 -18 5 -32l-1 -7q0 -7 4 -11q-1 -3 -1 -11v-13q2 -11 4 -21q10 -31 16.5 -53.5t6.5 -39.5q0 -15 2 -29t5 -28l-4 -7l-7 -3q3 -13 4 -20l-5 -22h-6q-5 -15 -5 -18q0 -4 3 -12t3 -12q-2 -14 -3 -26.5
t-3 -15.5q-4 -12 -8 -25t-6.5 -22.5t-6.5 -11.5l-3 -7q-2 -2 -3 -9t-4 -8l-1 -8l-4 -7l4 -3l4 8q11 4 12 12q7 4 17 13.5t22 22.5l1 7q10 7 19 15t10 11q3 1 10.5 6.5t16.5 7.5l3 -10zM397 416q-3 9 -12 16t-19 7q-4 4 -15 6.5t-13 3.5q-5 0 -15 5.5t-13 6.5q-7 -5 -13 -8
t-15 -6q-2 -3 -16.5 -6t-16.5 -3q-6 -11 -9 -15t-8 -4q-1 -4 -5 -7t-13 -10q-5 1 -10 -9q-9 -6 -17 -12q-6 -1 -8 -11t-8 -13l-3 -10q-3 -2 -6.5 -9.5t-5.5 -9.5l1 -6q0 -11 -7 -13q5 -12 5 -18q0 -4 -2 -12l5 -7l-2 -11l7 -11l-1 -5q6 -11 8 -17l-1 -6q0 -7 5.5 -15.5
t11.5 -16.5q3 0 23 -18t22 -22q14 -7 22 -7q10 0 27.5 5.5t19.5 5.5q6 0 11.5 2t9 4t11 5t9.5 6q6 -1 13.5 4.5t10.5 6.5q5 10 12 5v9q6 4 9 35.5t5 36.5q3 2 3 9.5t2 10.5q-2 5 -2 13v11l4 8q-1 6 -1 21q0 21 3 35q2 2 2 13q0 6 3 8l1 7q0 10 -9 12z" />
    <glyph glyph-name="r" unicode="r" horiz-adv-x="405" 
d="M399 441l-5 -6q-4 1 -12 1h-10q-7 7 -15 16t-8 17l-4 8q-10 -2 -16.5 -4.5t-16.5 -10.5q-7 1 -9 -6q-2 -2 -9.5 -5t-10.5 -7.5t-4.5 -7.5t-6 -5.5t-8 -5.5t-2.5 -8q-6 -2 -15.5 -13.5t-10.5 -18.5l1 -4q3 -2 4 -8t3 -8l2 -6l-1 -4l3 -11q0 -11 6 -15q3 -9 5 -21.5
t3 -18.5q-2 -8 -2 -11q0 -4 2 -12q-6 -12 0 -16q1 -5 -3 -13q6 -11 4 -29q-1 -15 -1 -30q-7 -18 -14 -35l-7 -6l3 -9l-7 -7l1 -8l-8 -3v-4q0 -7 -10 -12l-2 4l-16 -24l-12 3l1 -8l-15 -13l-10 -2q-1 -3 -6.5 -10.5t-7.5 -9.5v-25q0 -2 -1.5 -4.5t-5.5 -5.5l-10 -1
q-4 7 -7 13.5t-9.5 27t-8 26.5t-1.5 10.5v6.5q0 26 -14 84t-14 76q0 15 1.5 24t5.5 19l3 38q0 5 3 18t3 21q2 16 5 33q4 11 2 18q2 10 5 20l2 19q0 7 5 14q0 12 9 38t20 23l8 5l19 -6l7 -11q0 -2 4 -6.5t3 -8.5q4 -4 9 -15.5t10 -16.5l4 -1q22 23 40.5 37t28.5 15l3 1l20 2
l24 2q9 -1 15.5 -1.5t13.5 -3.5l11 2q17 -9 34 -17q5 -4 7 -12.5t5 -18.5q-3 -13 -6 -22t-6 -10z" />
    <glyph glyph-name="s" unicode="s" horiz-adv-x="485" 
d="M486 124l-8 -17l-4 -4q1 -1 2 -6q0 -10 -14.5 -26.5t-28.5 -27.5q-15 -2 -25 -9q-1 -2 -18 -11.5t-29 -16.5q-15 -2 -34 -8.5t-26 -6.5q-3 -2 -10 -2q-6 0 -8 -2q-18 0 -20 -1h-14q-17 0 -42 2.5t-29 2.5l-6 -3q-9 6 -20 10.5t-26 10.5q-1 3 -7.5 5.5t-7.5 4.5
q-7 2 -14 8t-15 15q-9 23 -17 46l2 13l-2 10q7 22 10.5 29t25.5 11l33 -5q4 -5 8 -8.5t9 -5.5l1 -7l-8 -16q3 -9 6.5 -19t6.5 -15l20 -12q14 0 21 -6q24 -4 34 -5t22 -5q2 1 10 5.5t11 5.5l17 17t10.5 9.5t7.5 15.5q-1 2 -2 30t-2 34q-2 1 -2 8t-5 10.5l-10 7t-7 6.5
q-9 3 -17.5 12.5t-12.5 14.5q-7 1 -42 18.5t-38 23.5q-14 10 -32 39t-27 37v14l-3 5q-2 5 -2 15t-1 15q0 10 4 17q4 2 4 13l2 5q4 30 25 46.5t28 25.5l27 16q0 2 6 4t7 5l12 7q4 7 16 7q6 3 16 3l8 2q0 2 12 3.5t13 1.5h10q9 -7 16 -3l9 -3q5 2 20.5 -4t34.5 -13
q8 -3 18 -6.5t24 -19t18 -19.5q4 -8 4 -14q-11 -11 -25 -13l-5 -8l-28 -19l-8 -5l-8 -1l-6 2q-5 4 -9.5 6.5t-1.5 6.5v5l1 3l1 4q0 3 -2 7t-7 10t-8 12q-6 2 -14.5 10.5t-12.5 10.5l-3 3l-35 6l-13 -1q0 -5 -16 -18.5t-17 -14.5l-7 -2q-8 -10 -13 -18.5t-5 -10.5l-2 -6
q2 -13 4 -25l13 -14q12 -10 27.5 -19t29.5 -12l3 1q5 0 13 -2l12 -3l6 -4q5 0 11 -3t10 -2l8 -2l6 -4l18 -5l27 -12l10 -9q7 -1 17.5 -6.5t15.5 -8.5l3 -5q3 -1 6.5 -5t6.5 -7q1 -5 9.5 -17.5t10.5 -17.5q0 -10 6 -12l16 -34q2 -9 4 -17l-2 -11l4 -18q1 -15 0 -22
q-3 -7 -6 -13z" />
    <glyph glyph-name="t" unicode="t" horiz-adv-x="497" 
d="M493 107q0 -31 -19 -56q-4 -3 -6.5 -7.5t-10.5 -12.5l-11 -11q-12 -4 -23 -7q-15 -18 -40 -18q-4 4 -10 0q-13 0 -22 -5q-5 1 -23.5 2t-36.5 4.5t-27 8t-20 15.5q-23 11 -40 24.5t-23 34.5q-6 10 -11 20q-8 11 -8 14l-6 14q-1 7 -5.5 26.5t-7.5 27.5q0 8 -3 10
q-3 15 -4 17.5t-1 10.5q0 14 -3 20q1 4 1 12q-2 23 -3 46q0 10 -1 11q2 17 3 40.5t1 45.5q4 1 9 3q1 3 -1.5 5t-4.5 4q-3 -1 -10 4h-27q-12 0 -17 1q-13 -2 -21.5 -3.5t-11.5 -1.5q-1 0 -7 6q1 3 -3 4t-5.5 2.5t-10.5 7t-10 11.5q-2 6 11 16q2 0 9.5 2t10.5 -1q8 1 22 1
q10 0 30 -1t30 -1h13q4 1 6 4.5t5 9.5q-1 1 -2 7q5 10 3 14q3 6 4 22.5t7 24.5q-2 6 3 13.5t4 12.5q2 8 5 17q-1 4 1.5 6.5l5.5 5.5q-3 18 6 30q-1 4 3 12t3 12q4 5 6.5 13.5t5.5 19t6 23.5q4 4 10.5 2t10.5 -7l26 -9q6 -13 17 -19t19.5 -17.5t14.5 -15.5q-1 -4 2.5 -7.5
t2.5 -6.5q2 -2 3 -8t3 -8q1 -4 -1.5 -9.5t-1.5 -9.5q0 -5 3.5 -10t4.5 -11.5t1 -11.5q0 -6 -4 -10q2 -7 8.5 -20.5t7.5 -18.5q3 -2 3.5 -10.5t4.5 -11.5q-1 -2 5 -10q18 3 26 4t25 1q28 0 46 -5.5t27 -9.5t17 -13q2 -5 -1.5 -9t-6.5 -7q-13 -1 -19 -1q-4 0 -9 3q-13 1 -20 1
q-11 0 -16 -1.5t-11 -7.5q-15 2 -25 -4q-3 1 -10 -1.5t-11 0.5q-8 -4 -15 -8q3 -7 0 -19t-4 -15l-2 -3q2 -22 2 -33q0 -12 -8 -19q-7 -14 -4 -20q4 -2 2 -11q-5 -3 -5 -8q0 -14 -5 -15q-3 -12 -5 -24v-30q0 -6 1 -9q-3 -5 -5 -8t0 -7q8 -5 10 -15t2 -14q-1 -16 -1 -23
q-4 -4 -1 -11.5t3 -11.5q3 -1 3 -6t3 -7q2 -7 5 -14q4 -2 6 -10.5t9 -8.5q6 -6 13 -12q10 -12 18 -6q6 3 8 3l24 11q6 6 13 13.5t7 15.5q4 7 8.5 15.5t4.5 18.5q2 5 2 18q0 10 -3 16l-13 -6l-12 4l-6 14q2 14 7 19t8 7t7 0q3 -2 12.5 -3.5t12.5 -6.5q10 -2 18.5 -5.5
t10.5 -15.5q-1 -4 3.5 -20.5t1.5 -23.5z" />
    <glyph glyph-name="u" unicode="u" horiz-adv-x="599" 
d="M584 228l2 -3v-19q0 -12 -7 -13l-6 -17l-14 -14t-8 -14l-3 -12q-3 -3 -9 -4.5t-6 -11.5q0 -6 -7 -22.5t-7 -27.5l-3 -13l-9 3l-7 -14q-10 -6 -21.5 -14.5t-9.5 -16.5l-11 -11l-7 3q-9 -18 -24 -18q-6 33 -6 66q-4 6 -7.5 18t-6.5 23q-3 0 -12 -10.5t-10 -11.5
q0 -6 -19.5 -24t-26.5 -21q-1 -5 -13 -5q-2 0 -4 -7q-6 0 -13 -11t-14 -8q-2 -2 -11 -2q-6 0 -9 -3q-2 3 -12.5 1t-13.5 2q-3 -1 -9.5 2t-10.5 4l-14 8h-4l-18 6q-9 6 -21 14.5t-17 10.5q-28 25 -48.5 83t-20.5 101q-3 24 -5 48l-2 3v60q0 11 7.5 29.5t20 69t15.5 58.5
q7 4 7 12q6 10 20 17l16 -2q9 -10 15 -24.5t6 -29.5q0 -7 -1 -10q2 -3 9.5 -13t7.5 -17q3 -2 3 -11q0 -6 2 -8q-4 -8 -4 -20q-5 -5 -8 -21t-9 -22q-2 -8 2 -15q0 -17 -4 -22q1 -5 -2 -14t-3 -12q3 -7 4 -8l2 -25l-1 -10q-2 -2 -3 -10.5t-7 -10.5q5 -11 5 -19v-13q1 -7 2 -9
v-12q0 -8 3 -11v-15q0 -13 4 -19v-4q3 -7 5 -7l10 -5q4 -11 9 -21l10 -9q5 -10 15 -13.5t23 -3.5q10 0 25 9t29 18l4 -1q7 0 36.5 20.5t35.5 28.5l14 10l2 39q-3 8 -5 33.5t-3.5 29t-1.5 28.5q0 9 1 10q-2 12 -3 20t-1 10l7 144l6 24q1 14 1.5 23.5t4.5 17.5q0 14 5 29
t15 15l5 -2q3 -2 11.5 -2t11.5 -4l7 -5l3 1q4 0 10 -6t11 -7q0 -15 16.5 -30t19.5 -21q4 -1 7 -9.5t9 -7.5q2 -4 14 -22.5t14 -29.5q8 -11 8 -28q0 -5 -1 -11t-1 -9l8 -9l3 -29q-5 -4 -5 -13q0 -8 3.5 -25t3.5 -23q0 -13 -1 -24t-5 -20z" />
    <glyph glyph-name="v" unicode="v" horiz-adv-x="538" 
d="M534 392q2 -2 0.5 -8.5t0.5 -8.5q0 -11 -4 -36t-4 -38q-2 -8 -5 -18t-13 -26t-15 -25q-2 -9 -4.5 -13.5t-12.5 -15.5l-1 -11l-6 -1q-1 -2 -23 -26.5t-23 -28.5l-13 -11q-5 -10 -13 -9q-4 -5 -15 -10t-19 -8l-1 -11q-7 -2 -11.5 -8.5t-6.5 -10.5q-4 -1 -6.5 -5.5t-7 -7
t-9.5 -6.5l-9 3q-3 -20 -14 -16l-6 -6q0 -3 -4.5 -7.5t-4.5 -8.5t-3 -9.5t-4 -9.5q-6 0 -18 -4l-6 11l-1 9q-1 3 -1.5 6.5t-0.5 4.5q1 8 1 12q0 9 -8 13q-8 13 -23 37.5t-23 43.5q-5 7 -10 15l-8 14q-4 9 -9 12q-3 7 -5.5 14t-8.5 14q-2 11 -11 26t-16 26t-10 16t-10 15
q-2 1 -20.5 26.5t-21.5 29.5l-26 60q-6 10 -10.5 29t-7.5 26v16l-3 13q-4 12 -2 18l-4 7l3 15q4 7 11 7l14 -7l14 -7h12l1 -6q14 -9 28.5 -27.5t16.5 -32.5q7 -6 15 -32.5t11 -32.5q0 -1 3.5 -6.5t2.5 -9.5l9 -8q12 -23 25 -46q11 -9 18 -21l2 -10q5 -3 9.5 -12t6.5 -17
q4 -1 6 -10.5t4 -11.5q2 -16 6 -23l1 -9q9 -20 19 -40l8 -18l4 -4l4 -9q2 10 5 18.5t6 11.5l6 16q6 10 6 19l3 9q-1 3 2 8.5t3 8.5q13 24 67.5 141t53.5 119q2 2 5 9t6 9l12 21l3 11l7 9l-1 8q7 4 13 14l10 -4q7 -4 15 -8l8 -3q2 -2 9 -5t6 -9q3 -1 7 -4t7 -8v-6q2 -9 4 -9
q-1 -16 -1 -25l2 -9q-3 -3 0 -9t2 -9l2 -9z" />
    <glyph glyph-name="w" unicode="w" horiz-adv-x="870" 
d="M861 339q3 -9 2 -15l-3 -5q3 -21 -15 -39l-3 2q-5 0 -6.5 -4t-1.5 -11v-11q0 -9 -9 -11l1 -4q-5 -9 -11.5 -13t-3.5 -11q-4 -1 -4.5 -8t-3.5 -8l-1 -14q0 -7 -4 -10q0 -6 -6 -14.5t-3 -14.5q-4 -2 -6 -11q-13 -14 -22.5 -23.5t-18.5 -9.5l-4 -2l1 -5q-4 -10 -7 -20
q-4 -6 -6.5 -9.5t-4.5 -4.5q-6 1 -13.5 -6.5t-11.5 -8.5q-2 -4 -9 -6t-9 -5h-4q-6 1 -9 -2q-5 -9 -8 -14q-2 -1 -5 0t-4 2q-2 0 -5.5 -6.5t-7.5 -14.5q-17 -9 -16 -23q-2 -6 -11.5 -9.5t-11.5 -7.5l-8 -4h-9q-6 0 -8 6q-2 8 -4 13.5t-3 18t-1 21.5v22q0 8 -9 12q-3 6 -11 3
q-2 5 -10 7.5t-10 5.5q-3 -1 -6.5 2.5t-6.5 2.5q-3 5 -12 11.5t-9 13.5q-1 2 -3 2t-4.5 2.5l-12 12t-10.5 12t-11 21t-13 19.5l-4 -1q-7 -17 -16 -32t-18 -10l-22 -26q-3 0 -8.5 -5.5t-11.5 -3.5q-6 -7 -11 -14q-5 -2 -14 -10t-15 -7l-21 -23l-3 1q-3 0 -5.5 -5t-4.5 -6
q0 -18 -17 -23.5t-30 -9.5q-6 0 -8.5 4.5t-4.5 9.5q-3 17 -3 35q-3 5 -38 34.5t-41 47.5l1 4q1 5 -2 13t-4.5 14.5t-4.5 16.5q0 6 -4 17.5t-6 14.5t-8 14t-9 14q-1 4 -6.5 10.5t-5.5 8.5q-4 2 -4 9t-3 9l-8 26q-3 13 -4 20q-2 3 -3 10t-4 10q-8 22 -17 45t-16 37
q-4 21 -8 43l-3 10q0 8 2.5 21t2.5 16q0 13 5 21.5t17 8.5q6 0 18.5 -5.5t19.5 -3.5q14 -8 29 -15q22 -10 32 -30q5 -3 3 -14q0 -7 4 -10q0 -8 -4 -12l1 -5q-3 -9 -6 -17q2 -6 4 -7l-3 -12q7 -11 14 -21l-3 -9q4 -16 8 -31q2 -15 9 -18q4 -8 4 -18l-5 -13q4 -5 4.5 -25.5
t16.5 -22.5q10 -14 17.5 -25.5t9.5 -18.5q-1 -5 3.5 -11.5t3.5 -10.5q1 -2 2 -11l-1 -14q-4 -5 -6.5 -9t-2.5 -8t3 -8t4 -5q2 0 4 8q0 7 4 10q-1 7 7.5 22.5t7.5 20.5q1 2 5.5 12.5t9.5 13.5l1 7l22 42q0 8 5 10q0 9 2.5 24t2.5 19q0 9 5 14q1 8 4 27.5t3 30.5q4 3 4 12
q0 13 4 15v6l6 22q3 2 4 8.5t4 8.5l-1 5q0 3 2.5 10.5t-0.5 11.5q-2 6 4.5 13.5t6.5 12.5q2 3 6.5 3.5t9.5 1.5q10 -7 21 -13q3 -4 14 -2q3 -1 13.5 -2t14.5 -5q14 -6 22 -7q3 -2 4 -12t8 -11q7 -7 14 -14.5t7 -17.5q2 -7 3 -11.5t6 -5.5q3 -3 4 -11t4 -12l4 -13v-14
q-2 -7 4 -10q-1 -9 -3.5 -27.5t-2.5 -34.5q-1 -5 -4.5 -13.5t-3.5 -11.5q0 -5 7 -12.5t7 -11.5q2 -3 10.5 -11.5t9.5 -14.5q3 -2 15 -18.5t22 -31t10 -18.5q2 -2 3.5 -9t7.5 -6v-12q0 -3 2 -4.5t3 -1.5l4 10q7 7 7 10q-1 4 -1 9q1 5 7 7l-1 5q0 4 3.5 13t3.5 19q0 1 3 5.5
t2 7.5q5 5 15.5 34.5t10.5 35.5q0 8 4 11l1 27q0 8 5 24.5t7 26.5l3 3v30q0 5 3.5 20.5t3.5 23.5q0 9 4 16l2 34q0 10 -3.5 19.5t-5.5 16.5q1 4 5.5 8.5t4.5 7.5v4q0 3 6.5 5.5t7.5 3.5q10 0 24.5 -7.5t16.5 -8.5l3 1q10 -8 21 -16t21 -10l11 -8q14 -12 28 -23.5t14 -13.5
q7 -9 15 -24.5t7 -23.5q3 -8 5.5 -16.5t1.5 -16.5q1 -6 5.5 -21t4.5 -17z" />
    <glyph glyph-name="x" unicode="x" horiz-adv-x="531" 
d="M539 81q-10 -8 -11 -12l2 -4l-2 -4q2 -5 -1.5 -12.5t-3.5 -10.5q-7 -9 -7 -15l2 -3q5 -20 9 -25q4 -9 9 -19l-4 -7q-18 0 -22 5q-38 11 -79 41t-87 71l-35 43q-1 5 -8 13t-8 12q-3 1 -4 5.5t-5.5 9.5t-11.5 14q-6 -2 -6 -10q-3 -6 -15 -18t-16 -19q-5 -1 -8 -9
q-18 -27 -32.5 -48t-24 -24.5t-10.5 -11t-6 -8.5q-1 -3 -7.5 -7t-4.5 -9q-11 -8 -21 -16q-8 1 -13 1l-6 -3l-11 -2l-10 2q-7 -1 -18 3t-14 6t-8.5 7t-5.5 10v4q4 6 6 10t7 5q47 60 94 121q0 3 14 20t18 19q7 10 21.5 23.5t23.5 20.5q0 3 -5.5 7t-8.5 7t-11.5 13t-15.5 20
l-1 4q-20 21 -66.5 86t-44.5 78l-2 3l-5 44q3 5 6 9.5t7 4.5q7 -1 14 -1l19 -3q15 -12 16.5 -14t12 -4t13.5 -7h4q13 -4 27 -7q6 0 8 -8t9 -6l9 -2q3 -4 20.5 -12.5t22.5 -14.5q11 -7 17 -9l47 -36q1 -1 5.5 -2t3.5 -4q8 -6 17 -11q41 53 67 84t35 35q1 3 17 17l32 28
q14 0 14 -13q0 -3 -5.5 -9.5t-2.5 -11.5q-4 -2 -7 -15t-3 -19l-3 -7q2 -9 -2 -13l1 -6l-3 -9q4 -6 1 -17.5t-1 -17.5q-4 -6 -9 -12.5t-15 -14.5l1 -6q0 -7 -3.5 -14t-7.5 -16l-7 -7q0 -3 -3.5 -7.5t-2.5 -7.5q-7 -2 -4 -11l58 -56q6 -8 6 -13q1 -4 14.5 -21t16.5 -18
q1 -9 -2 -19q3 -23 9 -28q0 -17 -1 -18q-1 -8 3.5 -19t4.5 -17q1 -2 2 -4.5t3 -4.5q0 -11 -1 -16z" />
    <glyph glyph-name="y" unicode="y" horiz-adv-x="544" 
d="M536 367q1 -3 1 -11q0 -5 -3 -8q3 -17 -9 -46.5t-10 -43.5q-3 -6 -8 -19.5t-5 -19.5l-15 -17q-11 -24 -22 -47q-2 -2 -8 -9t-12 -9q-11 -12 -27.5 -38.5t-32.5 -39.5q0 -9 -7 -14l-2 -4l-21 -11q-5 -10 -14 -16.5t-22 -12.5l1 -8q0 -11 -22.5 -35t-41.5 -39l-2 -6
q-11 -7 -22 -7l-5 -4l-8 -3q-22 -28 -34 -46t-10 -26q-5 -7 -12.5 -23t-10.5 -22l-3 -3l-8 -3l-1 7l4 19q-1 5 1.5 11t2.5 8q5 8 12 45t14 51l-1 6q1 2 1 11q0 5 4 8q0 4 35.5 100.5t45.5 114.5q-8 8 -26 19t-25 21q-5 11 -8.5 17.5t-8.5 8.5l-68 70q-17 28 -34.5 68t-27 62
t-13.5 40.5t-8 26.5l2 8q-3 1 -3.5 3.5t-1.5 6.5l1 5q3 2 8 5.5t8 3.5l5 -2q21 4 54 -38q33 -50 41 -60q2 -1 4 -6t5 -7l6 -12q0 -2 3 -7t2 -8q0 -4 8 -12q1 -4 4.5 -11.5t4.5 -10.5q10 -8 18.5 -18.5t12.5 -21.5q0 -12 1 -23q10 -17 16 -26t6 -16.5t5 -9.5q12 -18 25 -36
q8 20 25 49.5t20.5 36.5t36 93.5t67.5 121.5q2 13 12 32t21 24h14q9 0 12 -3l5 -1q6 -10 7 -16l-2 -9l5 -6l-2 -6q4 -8 8 -17.5t7 -12.5t7.5 -8t3.5 -9q16 -20 16 -45q2 -3 1.5 -10t1.5 -10q0 -9 -0.5 -18t-4.5 -16z" />
    <glyph glyph-name="z" unicode="z" horiz-adv-x="471" 
d="M496 45l-9.5 -9.5t-8.5 -2.5l-6 -3q-4 -10 -22.5 -22.5t-30.5 -12.5q-28 5 -56 9h-5q-2 -6 -10 -6q-6 0 -12 2q-9 -9 -12 -8q-8 -2 -12 -2l-5 4q-4 -2 -13 0t-12 2q-5 6 -10 6q-6 -4 -10 -4q-3 0 -6 2.5t-4 3.5h-4q-12 4 -18 4q-4 0 -7 -3l-14 7q-14 -4 -19 -11h-5
q-4 0 -12 -4t-13 -2q-2 -2 -9.5 -2t-9.5 -6h-5q-8 0 -18 7.5t-19 15.5l-21 -6l-24 2q0 13 4.5 38t4.5 26q4 7 6 7q3 2 4 10.5t6 10.5l7 14v4q0 6 15.5 28.5t14.5 28.5q5 2 7.5 10t4.5 9q1 6 3 13t7 10q0 3 8 14q6 12 13 25q1 5 6 13.5t10 16.5q4 2 19 25t24 39q15 19 31 38
l14 20l34 34q4 6 9 13l-1 3l-17 -1l-9 2l-2 -2q-24 0 -68.5 4.5t-46.5 4.5l-5 -3q-4 1 -12 1q-5 0 -19 -2l-16 -6q-2 1 -12 1q-6 0 -8 3q-6 1 -27.5 10.5t-21.5 13.5q0 2 1.5 5.5t1.5 5.5q9 6 15 15q17 9 35 18q6 -5 13 4h7q20 0 57 -3.5t47 -3.5q1 -1 10 -1l4 -3
q9 -1 19.5 -1.5t15.5 -0.5t8 3l9 -3q11 0 22 1q3 3 10 1t11 1l12 -2q2 1 16 1q6 0 8 2q9 -4 22.5 1.5t19.5 13.5l12 -3q7 1 7 14q4 -5 9 -10.5t11 -5.5q4 -6 15.5 -11t13.5 -12q-3 -20 -3.5 -32t1.5 -13l2 -10q0 -4 -2 -13t-2 -14q-5 -11 -7 -27l-6 -11v-4q-2 -9 -3 -17
l-3 -10l2 -2v-6q-3 -17 -5 -34q-4 -1 -6 -11t-9 -9l-5 -2l-4 -11l-5 -5l-4 -18q-5 -2 -8.5 -13.5t-7.5 -13.5q-4 -8 -7 -15l-13 -10q-13 -2 -15 -8q0 -7 -4 -13t-7 -11l-11 -4q0 -17 -10 -22q-1 -3 -7 -7.5t-8 -7.5l-4 1q-8 -8 -14 -10l-4 1q-6 0 -11 -16q-2 -1 -8.5 -5
t-11.5 -1l-2 2q-1 -1 -5.5 -6.5t-8.5 -2.5h-8q-3 -5 -7.5 -10t-7.5 0q-15 0 -23 -11l3 -4h11q7 0 11 -4q7 -1 15 -1.5t12 -3.5l49 2l7 -2l1 3h6l38 -3l5 -3l6 3q3 0 12.5 -2.5t11.5 -2.5q12 -3 19 -3q5 1 6 2l3 -2q14 4 25.5 6.5t16.5 2.5q11 3 21.5 5t15.5 2l8 -3v-5
q0 -5 -8 -18z" />
    <glyph glyph-name="braceleft" unicode="{" horiz-adv-x="463" 
d="M490 776q-5 -1 -17 -1t-19 2t-9 2l-58 -18q-2 -14 -10 -22l1 -3q-5 -4 -8.5 -5.5t-1.5 -6.5q-7 -7 -12.5 -19.5t-10.5 -17.5v-11q-1 -11 -1 -17q0 -9 5 -14q0 -12 3.5 -22t8.5 -19q-7 -28 -7 -48l-5 -6q0 -9 -4 -21q3 -5 3 -11q-1 -10 -1 -14q-10 -6 -15.5 -11.5
t-12.5 -16.5q1 -6 5.5 -26t2.5 -31q-4 -5 -15.5 -24t-13.5 -22l-8 -3l-6 -13q-13 -12 -31 -18h-21l-4 -5q-22 0 -32 -5l14 -8q37 0 65 -24.5t41 -30.5q5 -6 11 -12t8 -14l13 -13l2 -23q-3 -13 -4 -19l-5 -2l-6 -9l3 -4l1 -16l-5 -12l2 -11q-4 -11 -11 -16l2 -11l-8 -14
l14 -70l10 -14l2 -13l-8 -5q2 -7 3.5 -12t-1.5 -7q4 -13 -3 -28l7 -13q11 -7 18.5 -13.5t17.5 -15.5t20 -10t14 -3l19 -2q16 0 32 8l1 -6q0 -5 -5.5 -10t-7.5 -7l-16 -4l-4 -5l-4 1l-20 -6l-7 2q-86 0 -146.5 66t-60.5 133q0 10 -2.5 25t-2.5 19q0 15 6 26l1 14
q0 52 -3 82.5t-17 60.5l-10 9q-8 9 -13.5 15t-14.5 7q-16 9 -24 14.5t-7 12.5q18 11 30 12q20 16 41 33q10 14 28 52l-4 12q1 4 -1 13t1 13l1 44l-2 2v81q0 78 66 141t168 63q29 0 40.5 -4t14.5 -14l7 -7z" />
    <glyph glyph-name="bar" unicode="|" horiz-adv-x="251" 
d="M166 761l1 -3q-2 -8 -3.5 -17t-1.5 -14q1 -22 1 -33v-9l-10 -22v-5q0 -6 -10 -37t-10 -40l1 -3q-2 -9 -3 -17l-4 -13q-3 -3 -3 -15q-1 -7 -4 -24.5t-8 -51.5q1 -3 1 -11q0 -16 4 -21q2 -9 5 -19.5t3 -18.5l-2 -18q-6 -13 -7 -24l3 -19q0 -5 3.5 -11.5t7.5 -12.5l-1 -13
l-3 -5q-5 -3 -8 -12.5t-4 -10.5q-2 -18 -3.5 -32.5t-6.5 -21.5q-3 -9 -3 -21v-6q2 -4 2 -5l-3 -11v-9l5 -10l6 -4q0 -6 2 -18t5 -15q-5 -10 -5 -17q0 -11 5 -16v-19q0 -10 5 -15q-6 -15 -6 -18l3 -5l5 -10v-20q0 -10 2 -14l4 -3q0 -14 9 -20l7 -10q-1 -19 -1 -29l2 -15
q1 -8 1.5 -15.5t4.5 -10.5l2 -22l-2 -4v-27q0 -7 2.5 -23.5t7.5 -15.5h9q10 28 15.5 79.5t5.5 90.5q1 8 3 16l2 2q0 16 7 48t7 44l2 3l-1 71q0 20 4.5 56t4.5 41q-6 5 -2 15q3 10 3 16l-3 7q0 14 -2 51t-2 39q0 5 1.5 12t2.5 11q-1 6 1 14.5t2.5 18.5t1.5 25q-1 4 -1 12v15
q0 5 -2 13q2 9 -4.5 23t-8.5 19q2 15 4 31q0 27 -1 43.5t-6 39.5q-5 3 -7 24.5t-2 34.5q2 13 -2 19q-2 13 -6 31.5t-8 34.5l-14 -3z" />
    <glyph glyph-name="braceright" unicode="}" horiz-adv-x="446" 
d="M432 311q-14 -1 -29.5 -1.5t-13.5 -9.5q-6 -6 -12.5 -17t-11.5 -20l6 -48v-43q0 -20 -0.5 -39.5t-5.5 -34.5l-2 -2q0 -12 4 -37t4 -38q0 -20 -11 -37.5t-24 -37.5q-52 -45 -70 -55q-31 -12 -74 -32q-8 0 -14 -2t-10 -3l-48 10q-1 5 -8.5 6t-12.5 1h-27l-1 8q3 5 9.5 6.5
t16.5 1.5l5 -1q4 0 11.5 5.5t17.5 3.5q14 5 19 3l18 7l23 21l-3 14l3 10l26 26l3 15l4 6l6 28l-2 6q0 8 1 13.5t6.5 19t6.5 19.5v9q-4 3 -4 13q0 8 -4 11q0 3 5 13.5t6 14.5q-6 8 -7 14l1 3q0 8 -9 13v12q0 7 4 19l5 8q5 -1 8.5 4.5t5.5 5.5l-2 16q2 7 11 19t11 15.5
t6.5 10.5t10.5 8l11 12q14 5 20.5 8t11.5 8l12 2q-16 10 -41 13q-10 4 -19 9l-16 6l-5 6q-6 1 -20 10l-7 11q-7 3 -9 14l1 3q-4 8 -7 16.5t-5 14.5t-2 11q3 3 2 8l-2 10q0 2 5 8.5t10 12.5l-5 6l-6 30l-4 13q-1 11 -2 18.5t-1 15.5v12l2 2l1 23q10 14 10 30q0 18 2 23
q-6 13 -7 24l4 13q-4 6 -11.5 27.5t-11.5 29.5q-7 3 -14.5 12t-11.5 14q-6 0 -18 3t-19 3q-9 0 -21 -2t-21 -4l1 -3l-13 -8q-6 4 -6 11l10 12l-2 10q14 5 29 10h12q6 0 9 3q5 -3 17 -3q4 -1 11 -1h12q6 0 18 -4q4 1 13 -1t14 -1q68 -27 91 -57t31 -104q2 -4 2 -13q1 -7 2 -8
l4 -43q-1 -4 -1 -12q0 -13 -3 -19q3 -9 3 -19t-3 -30t-3 -30q0 -6 2 -20t2 -22q6 -26 12 -51q9 -24 45 -24q8 0 16.5 -3t17.5 -6l6 -16q-6 -8 -13 -5z" />
    <glyph glyph-name="asciitilde" unicode="~" horiz-adv-x="624" 
d="M600 289q0 -13 -2 -24t-8 -19q-3 -1 -1.5 -7.5t-1.5 -10.5q1 -4 -5.5 -7t-9 -4.5t-3 -6t-4.5 -2.5l-4 -11q-2 -1 -4.5 -0.5t-3.5 -5t-6.5 -8t-7.5 -5.5l-14 -3.5t-16 -7.5q-8 0 -18 -2t-13 -2q-9 0 -17 5.5t-13.5 8.5t-23 12.5t-28.5 7.5q-1 1 -7.5 4t-8.5 8
q-2 -2 -9.5 -2t-11.5 -2q-2 0 -6 4t-8 2q0 8 -8.5 9t-8.5 9q-6 -4 -11 5t-10 4q-8 -4 -20 2t-16 6q-9 1 -21 16t-23 13l-27 20q-6 -1 -14.5 2t-13.5 1q-4 -1 -7 -1q-7 -7 -11.5 -3t-12 -7t-10.5 -12q-5 -10 -8.5 -22.5t-2.5 -22.5q5 2 6.5 -7t4.5 -11q4 7 13 7t14 -4t8.5 -7
t1.5 -9q-3 -1 0 -7.5t1 -11.5q2 -2 -5 -8.5t-11.5 -8t-9 -2t-9.5 -0.5q-9 0 -14 4q-5 -4 -10.5 0.5t-10.5 9.5q-9 0 -14.5 18.5t-8.5 21.5q-3 11 -5 19t-2 16q0 24 4.5 38t17.5 37l14 26q10 16 16.5 23t23 18.5t30.5 15.5t41 7q27 0 41 -5t45 -19t43.5 -20.5t16.5 -13.5
q18 -10 33.5 -17.5t35.5 -15.5q25 -17 51 -33q5 0 17 -2t20 -2q13 0 23 4t18 29q4 16 4 23q0 4 -2.5 10t-8.5 8q-9 1 -11 1q-4 -6 -9.5 1.5t-10.5 0.5q-17 0 -15 17q1 7 4 12.5t2 8.5q1 11 7 13l12 4q5 -1 11 -2l24 1l10 -10q2 -5 10 -14.5t10 -17.5q6 -12 8 -18t2 -16
q0 -9 -1 -15q2 -7 0 -19t-6 -19z" />
    <glyph glyph-name="Adieresis" unicode="&#xc4;" horiz-adv-x="599" 
d="M581 211q6 -10 6 -16q-2 -6 -4 -11l-1 -12q2 -3 2 -13q0 -6 2 -8l1 -3q0 -1 -2 -7.5t0 -9.5l-4 -8l-11 -4l-2 -12q-6 -6 -5 -12l-5 -8l2 -11q-4 -3 -4 -15q4 -3 4 -13v-11q-2 -2 -3 -7t-4 -7v-17q-9 -7 -15 -7q-18 0 -24 22q-2 1 -3.5 7.5t-3 9t-3.5 10.5t-7 22l-6 5
l-3 7q-6 14 -11 19q1 4 -4 10.5t-10 19.5t-12 34q0 8 -6 14l-1 16q-6 7 -12 20t-4 20q-2 2 -5.5 12.5t-5.5 12t-3.5 13.5t-1.5 15q-7 9 -4 22l-8 -7l-7 3l-10 -10l-5 2q-6 -1 -20 3t-19 2q-10 5 -20 11l-27 5q-5 -2 -9.5 -4t-9.5 -4.5t-10 -1.5q-3 -6 -17 -6l-55 -1l-6 -29
q-5 -4 -5 -9q2 -10 2 -15l-5 -24q-8 -6 -7 -15l-9 -21q-1 -7 -1 -13q-2 -6 -4 -11q0 -4 2.5 -10t2.5 -8q-6 -13 -8 -19q-4 0 -4 -9l-2 -6l-3 -15q-1 -3 -1.5 -6.5t-0.5 -6.5q0 -7 -5 -8q2 -13 -4 -16q-5 -13 -5 -24l-7 -5q-3 -17 -3 -25l-6 -3q-9 -15 -19 -15q-12 0 -12 15
q0 24 1.5 45.5t6.5 24.5q0 13 2 44.5t2 32.5q2 8 3 9q-2 8 3 23.5t6 19.5l-2 42q2 16 4.5 28.5t2.5 17.5l-2 5q-5 -1 -12 5q-7 0 -15.5 0.5t-9.5 1.5l-14 26q10 10 18 9q9 6 20 6q3 2 4 4h5l15 2q2 17 5 34q9 14 9 30v6q0 6 2 12.5t4 13.5l11 40q1 3 6.5 16t5.5 20
q9 12 7 27q5 8 11 17l6 12q4 4 11.5 18t6.5 16q15 24 31 48q4 15 13.5 27.5t23.5 27.5q-2 6 2.5 8.5t5.5 5.5q-2 1 -2 6t-3 7q3 5 8 8t7 4l7 -6q6 1 12 -5t8 -6l9 -6q4 -10 4.5 -11.5t7.5 -2.5l4 -3q26 -25 42 -41t17 -24q15 -11 14 -22q11 -11 16 -20l1 -9l6 -7
q0 -6 5.5 -10t5.5 -5q13 -3 26.5 -16t18.5 -28q6 -4 9 -6.5t4 -7.5q13 -8 21.5 -22t8.5 -29q7 -4 5 -16q11 -9 10 -15q7 -10 11 -28l2 -2v-16q-1 -8 -2 -10q0 -9 -0.5 -14.5t-4.5 -9.5v-5q0 -11 3.5 -20.5t10.5 -17.5q1 -6 4.5 -16t7 -18.5t4 -31t1.5 -28.5q-8 -3 -8 -8z
M388 372l-6 18q-3 2 -4.5 9t-3 9.5t-1.5 12.5l-1 6l-1 14q-2 4 -3 13.5t-4 12.5q1 8 1 12l-4 4q-4 11 -7 23l-9 9l-9 27v4q-6 11 -12 23t-8 23l-6 7l-10 -20q-4 -3 -6.5 -12t-4.5 -11q0 -4 -2.5 -11.5t-7.5 -15.5l-7 -16q-2 -15 -7 -22l-7 -30l2 -5q0 -5 -6.5 -15t-6.5 -18
l-8 -12q0 -8 -4.5 -15t-9.5 -13l1 -5q2 1 9 2q7 0 28 -3t24 -5q11 0 16 -4q13 -2 24 -7q10 3 13 -5h4q5 0 17 2t18 1q1 -2 8 -3q7 0 7 4q1 5 -6 12z" />
    <glyph glyph-name="Aring" unicode="&#xc5;" horiz-adv-x="586" 
d="M590 175q-3 -10 -9 -42t-4 -36l-3 -14l-14 -20q1 -8 2.5 -14.5t1.5 -16.5l-6 -24l1 -13l-7 -9l-2 -17l-5 -7l-5 -2l-7 5q-6 14 -11 27l-4 8q0 11 -10.5 30.5t-11.5 25.5q-3 4 -8 17.5t-11 18.5q-19 33 -31 55.5t-17.5 40.5t-10.5 22l-5 15q-4 3 -8 13.5t-8 14.5l-5 11
l-12 2l-16 -7l-20 -2q-8 6 -16 4q-20 2 -24 5q-5 -2 -13 1.5t-11 3.5q-12 -1 -23 -1q-17 -7 -33 -10.5t-32 -3.5q-13 -4 -20 -11v-22q-12 -13 -14 -18t0 -12q-5 -6 -8 -30t-4 -31l-12 -14q-3 -12 -5 -24l-6 -12q4 -16 4 -24q0 -19 -10 -32l-12 -11l-8 -16q-6 0 -11 2.5
t-10 6.5l-3 16q0 2 2 12.5t1 16.5l4 22l-2 84q0 16 2 24q5 9 9.5 17t2.5 19q7 13 7 29l2 2l1 14q1 13 -12 13q-6 6 -11 16.5t-8 16.5l3 12l11 3q4 -1 5.5 -4.5t4.5 -4.5q13 2 18 6q0 8 4.5 20.5t4.5 16.5q0 14 11 40.5t10 37.5l4 16q-1 6 6 18.5t14 18.5l54 96
q10 10 15 20.5t10 14.5q4 9 9 17.5t20 29.5v19q0 5 -4 16t-4 15q0 5 6.5 10t14.5 9q20 0 36.5 -6.5t26.5 -21.5l11 -6l7 -10q9 -4 18.5 -8.5t17.5 -14.5l4 -1l12 -7q2 -3 7.5 -5.5t6.5 -4.5q5 -2 9.5 -10t8.5 -8l13 -8q23 -34 31 -51t6 -30l2 -2v-16q0 -6 1 -9l8 -1l3 -6
l-1 -3q5 -12 1 -18q2 -3 4 -12.5t3 -14.5l-2 -4l7 -2q0 -1 7.5 -23.5t4.5 -25.5l7 -11l-2 -11q0 -4 5 -10.5t4 -11.5l4 -8l-2 -20q10 -10 22 -63t12 -76q-1 -11 -1 -22zM361 370q0 9 -6.5 31.5t-6.5 29.5l-16 37q-4 16 -9 30.5t-5 18.5q-3 4 -6.5 17t-6.5 22.5t-1 14.5
q-3 2 -3 12q0 8 -4 9q-6 1 -6 -12l-4 -7q1 -7 -1 -17t-2 -14l-14 -37l4 -11l-3 -12q2 -4 -2 -8.5t-7.5 -9t-8 -20.5t-6 -21t-11 -9.5t-11.5 -9.5q-7 -1 -10 -17q-3 -2 -4.5 -6.5t-2.5 -10.5q-5 -1 -5 -9q0 -9 -2 -11l2 -15q19 0 54.5 -4.5t39.5 -4.5q16 1 29 3t23 5h4l17 4
q-3 6 -5.5 17.5t-3.5 14.5z" />
    <glyph glyph-name="Ccedilla" unicode="&#xc7;" horiz-adv-x="609" 
d="M354 741q45 -5 68 -16q27 -17 54 -33l12 -14q4 -3 7.5 -5t8.5 -6q4 -7 15 -20.5t12 -16.5q-1 -7 7 -15q7 -5 13.5 -17t13 -25.5t5.5 -17.5q7 -6 6 -13l3 -11l-2 -10q-9 -11 -21 -12l-1 -4q-3 -2 -6 -3.5t-4 -3.5v-7q-2 -12 -3 -17q-5 -8 -10 -15q-5 -4 -8.5 -7t-6.5 -2
l-8 -5q0 -17 -12.5 -29.5t-28.5 -12.5l-13 -9l10 -14q9 -7 20 -14.5t20 -10.5t13 -8l13 -8q2 -3 17 -11q2 -3 9.5 -10t9.5 -13l24 -26l9 -29q-5 -14 -10 -27l-3 -2l-5 -18l1 -6l9 -12v-12q0 -6 -2 -9q2 -4 -1.5 -10t-7 -9t-5.5 -4l-1 -6q-6 -13 -12 -13l-8 2q-6 -9 -12 -17
q-2 -10 -7 -15l-11 -9l-2 -5q-8 -10 -16 -13l-4 -10l-5 -3h-5q-4 -6 -15.5 -17t-16.5 -12q-9 -9 -12 -8l-14 -12q-26 2 -43 -4l-12 -1l-19 -2l-13 -1q-5 0 -19 2t-17 1q-3 3 -10 3h-10h-10q-12 5 -17 0q-7 3 -15 1l-12 3l-5 -2l-11 2q-4 -3 -18 -4t-18 -2l-3 1l-6 -1l-9 -7
l-6 8v5q1 5 -1 7.5t-8 7.5l1 6l-5 15q-11 8 -23 49t-20 69.5t-10 37.5l-2 17q-3 5 -4 13.5t-1 16.5v24q0 14 -3 37t-3 25q0 5 2.5 15.5t3.5 16.5q-1 3 1 11t0 12l1 49q-4 9 -1 15q-1 4 -1 14q0 18 -1 25.5t-1 11.5l2 4q1 9 2 19q4 10 7 32t7 35.5t20.5 43t21.5 43.5v9l6 4
q2 17 16 31l17 2l8 -2q16 8 57 15.5t47 8.5q6 -2 14.5 -2h16.5zM297 686q-5 -3 -18.5 -4t-21 -3.5t-13.5 -0.5l-8 -2h-11l-9 -3q15 -31 29.5 -61t20.5 -70q4 -12 8 -23q-5 -7 -5 -12q3 -8 4 -11l1 -23l1 -3q-2 -8 -4.5 -13.5t-7.5 -9.5l-1 -3l2 -24q9 1 25 -1q14 1 20 -3
q11 0 21.5 1t21.5 2q1 1 3.5 1.5t5.5 1.5h18q9 3 13 4l30 26q5 -2 10.5 4.5t7.5 8.5l34 86q-2 7 -3 14q0 16 -4 24.5t-4 13.5q-4 15 -11.5 31t-14 25.5t-13.5 9.5t-11 3l-12 -2l-10 4q-3 -4 -11 -4q-9 0 -21 3.5t-25 8.5l-8 -2l-5 2l-7 -4q-16 3 -17 8zM351 368
q-3 -2 -9.5 -2h-9.5q-2 -2 -6 0t-6 1l-4 -6l-7 -1q-13 -8 -19 -8h-20q-9 7 -12 12h-4l-10 -40l3 -4v-19q-1 -5 -2.5 -13.5t-3.5 -14.5l1 -26l3 -5l2 -11q-3 -2 -6.5 -13.5t-6 -14t-4.5 -5.5q-4 -31 -6 -32l-12 -22q-2 -17 -7.5 -33t-14.5 -33q1 -1 44.5 -14t47.5 -14
q4 2 9 2.5t8 1.5t16 1q18 0 20 -1l23 4q5 -3 25 -3q26 0 31 2t8 6l6 8q38 31 48 39.5t13.5 13.5t3.5 13t1 11q-1 3 -1 10v12q0 15 1 28t2 21q-5 26 -15.5 52t-24.5 50q-5 3 -21.5 22t-29.5 23q-3 -2 -10 -2h-12l-2 2l-5 -2l-6 2q-2 2 -7.5 2h-11.5z" />
    <glyph glyph-name="Eacute" unicode="&#xc9;" horiz-adv-x="603" 
d="M202 769q6 -2 13 -4q2 -8 9 -10q9 -11 12 -22q21 3 41 5.5t42 2.5l19 -2q2 -2 11 -2q6 0 9 -3q15 0 18 -3l4 2l58 -15q6 1 11.5 -1.5t6.5 -2.5q12 -7 27 -9q5 -5 15.5 -9.5t18.5 -14.5q3 -1 6 -6.5t6 -5.5q5 -12 6.5 -16t9.5 -12l1 -10l11 -11q-1 -6 8 -13q0 -10 5 -14
q-1 -14 -2.5 -28t-5.5 -17v-15t-8 -16q-2 -8 -3 -16q-4 -1 -5 -8t-3 -8q-8 -10 -15 -19q-9 -4 -17 -18l-18 -10l-8 3l-20 -22l-10 1l-6 -8q-10 1 -15 1q-6 0 -6 -7l-2 -5l2 -10q4 -2 14 -3t14 -6l14 -1q5 -9 11 -7l9 -1q1 -4 7 -6.5t7 -5.5q6 -1 9 -2l6 -2l10 -6q8 1 15 -8
q1 -4 8 -8.5t13 -8.5q0 -2 14.5 -10t11.5 -18l9 -4q6 -13 10.5 -22.5t2.5 -20.5q3 -2 4.5 -13t1.5 -15l-2 -17q-6 -9 -6 -21l-3 -7l-10 -25l-14 -8l-1 -14l-7 -3q-1 -1 -6 -6.5t-4 -9.5l-6 -4q-2 -12 -10 -10q-7 -11 -14 -10q-2 -1 -8 -6t-11 -13q-9 -6 -13.5 -7.5
t-10.5 -1.5l-7 -14l-12 -4l-9 -10l-10 -3q-12 -9 -16 -4q-3 -1 -23.5 -9.5t-31.5 -13.5l-10 -8q-3 2 -18 -1q-4 2 -31 3t-32 7h-11q-1 0 -7.5 2t-9.5 0q-8 0 -15 5l-5 -1q-15 3 -30 7q-13 3 -16 6l-47 12l-2 3q-28 3 -40 13.5t-47 47.5q-6 12 -6 25q1 5 0 12.5t-2 14.5
q0 4 4 10l8 -1q6 -5 9.5 -20t7.5 -20q2 -14 15.5 -21t13.5 -8l12 -7q8 0 15 -6t11 -10l4 3q-5 29 -9 58q-5 10 -9 21l-32 83v4q1 5 -1 22t-5 20l-1 38q1 6 -1 14.5t-3.5 20.5t-1.5 21q0 20 -3 53t-3 34l2 48q1 2 1 11t2 12q-1 8 5 36.5t9 35.5l-1 5q2 10 5 21l4 14v4
q0 5 3 10.5t4 8.5l-4 3l-11 -1q-8 4 -13 4h-8.5t-15.5 13l3 7q11 5 19.5 7t11.5 2q13 7 30 7l7 7q13 28 26 57l6 8l28 -11zM284 693h-6l-6 -6l-9 2l-11 -6q2 -6 7.5 -16.5t5.5 -14.5q3 -2 3.5 -7t0.5 -9l2 -13q4 -2 6 -13t2 -23q0 -11 -1 -13q5 -2 5 -6q-1 -5 -1 -8
q2 -2 3.5 -5t2.5 -4q2 -4 0 -18.5t-3 -26.5q0 -7 2 -23t1.5 -27.5t0.5 -17.5l-6 -26l4 -1q20 10 40 10h13q6 2 19 2q12 0 18 1q12 11 17.5 15t12.5 5q4 4 17.5 13.5t16.5 8.5q6 9 31 35.5t25 53.5q0 40 -14 74q-4 4 -18.5 27.5t-31.5 27.5t-27 6t-19 6l-4 -1l-7 3l-5 -1
q-6 2 -29 3.5t-41 2.5q-9 -5 -17 -10zM342 372l-2 -3l-10 -2l-28 1l-6 -2l-14 -3l1 -12l-4 -12l2 -5q-5 -12 -5 -20q0 -10 -4 -17q-3 -2 -5 -11t-6 -11l1 -7l2 -7l-6 -21q-6 -6 -4 -13l-6 -27l-6 -1l-2 -8l-7 -2q-3 -5 -8 -10l-7 -7v-6l-3 -12q1 -7 -3 -18q-5 -3 -6.5 -11
t-1.5 -17q-6 -9 -12 -10l1 -8q-2 -1 -4 -6.5t-5 -6.5q0 -7 -9 -12q12 -2 22.5 -5t12.5 -5q6 -2 14.5 -4t18.5 -2q13 -3 27 -5q5 -4 20 -4h15q13 0 23 1t20 5q8 1 17 2q9 4 21.5 9.5t16.5 10.5q21 10 42 21q23 19 35.5 29.5t15.5 16.5q5 3 8.5 10.5t5.5 11.5q2 10 3.5 16.5
t1.5 12.5q0 64 -21 97t-74 67q-5 0 -11.5 4t-10.5 3q-15 9 -27 9.5t-22 1.5l-5 2.5t-2 1.5z" />
    <glyph glyph-name="Ntilde" unicode="&#xd1;" horiz-adv-x="567" 
d="M592 94v-9q0 -5 -12.5 -19.5t-17.5 -15.5q-5 -5 -14 -13.5t-12 -13.5l-16 -4l-9 4l-7 -7q-12 -4 -18 -2q-8 -3 -15 -5q-10 0 -13.5 -4.5t-11.5 -4.5h-9q-4 2 -5 2q-5 -4 -9.5 -8t-10.5 -4l-26 4l-6 4q-3 -4 -10.5 -1t-10.5 2l-5 3l-4 -8l-6 2l-10 -2l-11 3q-2 -2 -7 -0.5
t-10 4.5q-6 0 -24.5 5.5t-23.5 10.5l-11 4q-5 4 -10.5 8.5t-11.5 5.5q-11 12 -33 27.5t-35 23.5l-32 32q-13 9 -27.5 30t-19.5 25l-2 6q-9 9 -8 16q-3 2 -10.5 29t-9.5 37.5t-4 22.5q-2 3 -3 11t-3 12l1 4q-2 6 -3 11t-1 13q1 12 1 18q0 4 -2 12l1 45q0 4 3 14.5t2 16.5
l5 11q-2 8 -1 11l1 13l5 9l1 12q2 8 3.5 10t4.5 12.5t7 12.5l9 15q1 1 6 12t11 23l33 39q2 6 10 12t9 9q3 1 8.5 7.5t9.5 5.5q5 2 11 8l10 10q13 0 18 8l14 5q2 4 12 7t13 8l3 -1q7 2 15 4l68 27l18 -3l11 5h4q5 -1 16 6q4 -3 15 -4t15 -4l28 -8h5q4 0 11 -3t11 -3l25 -13h8
q-1 -11 34 -27t39 -29l-3 -16q5 -8 5 -11q-1 -5 -5.5 -12t-9.5 -12l-11 -6l-11 5q-14 25 -27.5 47t-27.5 16l-6 3q-2 -3 -7.5 -2t-6.5 -4l-8 1q-6 1 -29.5 -19.5t-28.5 -28.5l-3 1q-3 0 -6 -5t-6 -5q-6 -9 -12 -17q-6 -4 -11 -12t-9 -15l-11 -1q-4 -6 -8.5 -12.5
t-10.5 -11.5l-9 -12q-2 -8 -3 -14t-5 -8l-10 -34l-6 -2q-2 -2 -4 -10t-7 -7l-2 -5l2 -5q0 -5 -7.5 -21t-7.5 -21l-3 -9q-8 -6 -8 -16q2 -10 9 -32t4 -54l2 -13q-1 -3 -1 -11q0 -5 3 -8l2 -18q3 -2 7.5 -17.5t3.5 -19.5q4 -9 4 -18t2 -16q32 -31 65 -62q44 -37 76 -34
q4 -5 12 3q9 -1 13 -1q7 0 11 6q9 2 19 5l4 -1l42 24q4 1 7.5 4.5t11 13t10.5 27.5l-6 10l8 14t12 14q8 0 10 -6l17 -8.5t12 -14.5q6 -4 4 -13q0 -22 -3 -29q-8 -11 -12 -18z" />
    <glyph glyph-name="Odieresis" unicode="&#xd6;" horiz-adv-x="592" 
d="M619 172l1 -10l-4 -10l-9 -1l5 -16q-12 -6 -9 -14l-4 -14q-5 -1 -8.5 -4t-7.5 -7l-5 -10l-8 -1q-7 -11 -18 -19q-9 -3 -10 -5h-10q-2 -5 -13 -10.5t-17 -9.5q-1 0 -3.5 -5t-6.5 -3q0 -3 -6 -5t-6 -7q-4 -3 -16 -1q-3 -7 -15.5 -8t-16.5 -9q-37 -4 -73 -9q-11 0 -33 2
t-34 2q-3 3 -8 3q-8 -1 -11 -1q-8 1 -15 3t-13 4q-5 4 -9.5 7t-7.5 2q-9 6 -15.5 11t-20.5 5q-7 0 -10 5q-18 4 -63 69t-47 87q-7 11 -7 22q-4 9 -7 18q-12 69 -23 139q0 18 4.5 47.5t9.5 61.5q5 18 12 35.5t17 43.5q3 11 22 34.5t22 25t10.5 12t13 14.5t17.5 9t18 8
t15.5 15.5t19.5 12.5q7 6 18 12.5t21 12.5l7 -1l4 3q5 1 22.5 10t20.5 8q6 6 32.5 9.5t43.5 3.5q13 0 47 -6.5t45 -6.5q8 -1 10 -3q11 0 16.5 -3t9.5 -5q7 -3 15 -5q2 -4 10 -5t11 -6q3 -1 5 -7t5 -6q16 -13 22.5 -21t6.5 -22q0 -17 -14 -17q-4 0 -9.5 -3t-9.5 -5l-3 -7
q-4 0 -7.5 5.5t-6.5 10.5q-3 9 -17.5 24t-21.5 16l-22 11q-7 0 -19 -3.5t-18 -2.5q-10 1 -15 1q-8 0 -8 -9q-4 -8 -8 -10q-1 -2 -9 -3l-5 -3q-4 4 -12.5 -1.5t-10.5 -4.5q-8 -7 -15 -13q-6 -9 -10 -14t-11 -14q-6 -11 -14 -23t-16 -12q-5 -4 -5 -23l-3 -11q-3 0 -5 -5t-4 -6
l-1 -12q-5 -3 -7.5 -14t-6.5 -15q-2 -7 -4.5 -13.5t-8.5 -9.5l1 -3q-2 -11 -4 -21q-2 -3 -2 -10q0 -6 -2 -8l-1 -16l-7 -8v-4q1 -10 3 -20q4 -11 9 -26t11 -35l-5 -43l-1 -4q1 -2 2 -4.5t3 -4.5q0 -16 -1 -21q4 -3 7 -13t5.5 -16.5t6.5 -10.5q2 -14 7 -16l5 -12
q8 -7 12.5 -11.5t5.5 -12.5q3 -2 9 -3.5t8 -5.5l-1 -10q2 3 4 4l4 2l3 -1l10 -14l-3 -1l2 -6q2 -1 22.5 -7t40.5 -12q15 -11 33 -11q9 0 25 6.5t21 5.5q1 1 21 10t31 28q8 5 15 15l14 20l4 14q0 4 -3 8.5l-7 10.5l3 25l5 -1l7 4q5 -3 23 -3q14 1 16.5 -11.5t4.5 -24.5
q-1 -5 -3.5 -9t-5.5 -8z" />
    <glyph glyph-name="Udieresis" unicode="&#xdc;" horiz-adv-x="598" 
d="M601 338q-3 -2 -3 -8t-2 -9v-13q-3 -11 -6 -21q-3 -1 -3 -10q0 -7 -3 -19.5t-6 -20.5l-9 -5q-3 -6 -5 -18.5t-3 -18.5l-5 -9q-6 -2 -6 -12q-3 -14 -11 -19.5t-10 -9.5q0 -6 -4 -12.5t-9 -11.5q-3 -1 -21 -20.5t-38 -40.5q-10 -6 -14 -8l-7 1q-7 -3 -7.5 -5t-6 -3.5
t-7.5 -1.5l-8 3q-2 -2 -8.5 -2t-9.5 -3l-14 -2q-10 -2 -12 -4q-6 2 -10 2l-3 -2l-11 -2l-9 -10l-1 -3q-3 0 -10 -4t-11 -2q-12 -6 -15 -6q-4 1 -11 1l-5 -3l-12 -2l-3 -5l-8 -2q-8 1 -15 2l-23 3q-13 0 -24 4h-23q-4 0 -7 -6.5t-7 -6.5l-5 3q-20 27 -50.5 117t-30.5 124
l1 49q0 10 3 31t3 30l-3 40q1 10 -1 28.5t-2 19.5q0 26 14 79.5t14 68.5q0 21 12 56.5t21 59.5q-4 7 -5 8q6 6 5 13q7 1 14 3l3 3l10 -1q7 0 15 3t14 5l2 2h11q8 0 17 4q10 1 15 1q22 0 28 -1.5t14 -1.5q5 -1 6 -2q10 0 24.5 -0.5t17.5 -3.5q18 0 61 -16t50 -31l5 -6l9 -3
q9 -9 18 -17l10 -9l5 -2q6 -6 12 -11q3 -7 12 -18.5t11 -16.5l3 -1q5 -1 9 -9q9 -6 11 -23q4 -3 8 -7.5t8 -9.5l2 -5q0 -9 3 -12.5t5.5 -6.5t9 -21.5t11.5 -28.5l-1 -8q2 -7 4 -7l4 -8l-1 -4l3 -10l-2 -6q3 -2 3.5 -8.5t0.5 -12.5l-2 -3q5 -16 3 -30l3 -24q1 -1 1.5 -5.5
t0.5 -9.5zM526 387q-4 8 -2 20q-2 6 -3 18t-2 17q-1 8 -4.5 24t-13 42t-20.5 56.5t-60 71.5l-32 24q-3 0 -10.5 3t-14 4t-20.5 1h-20l-6 2q-7 -2 -18.5 -5.5t-16.5 -3.5q-4 1 -8 1h-5q-4 0 -14 6q-4 -1 -18.5 -2t-19.5 0l-7 -3l15 -25q3 -13 7 -27.5t4 -23.5l-1 -6l-2 -4
l3 -9q5 -41 5.5 -47t0.5 -22q-1 -5 -1 -16v-20t1 -19q0 -18 -4 -30l19 -56q3 -3 5 -14l3 -8q0 -3 2.5 -6.5t1.5 -6.5v-10l1 -4q-1 -7 -1 -14l-3 -20l2 -12q-2 -8 -3 -15q1 -8 2 -9v-50q-7 -7 -10 -14l-8 -6l-3 -17l1 -15q-2 -8 -3 -9l-8 -9l-10 -4q-8 -7 -13 -7l-11 -14
q-2 -3 -6 -14.5t-7 -16.5l1 -5q8 1 19 -4q8 -2 16 -3l16 -2q9 4 21 10t16 5q15 4 19.5 4.5t16.5 0.5l11 1q7 7 19 7q7 4 7 6l10 2q6 5 17.5 16.5t14.5 16.5l43 39q20 25 41 51l23 44q12 21 18.5 58.5t6.5 68.5v8z" />
    <glyph glyph-name="aacute" unicode="&#xe1;" horiz-adv-x="591" 
d="M589 205q1 -9 1 -14q-3 -3 -3.5 -14t-4.5 -14l2 -4q-4 -9 -7 -18l-16 -32q-4 -8 -11 -9q-4 -9 -9 -11q-4 -6 -9 -9.5t-5 -7.5q-11 -3 -12 -12q-9 0 -9 -11t-10 -21q-14 -4 -20.5 -12t-13.5 -17q0 -3 -4.5 -7.5t-0.5 -8.5q-2 0 -6 -3.5t-7 -3.5q-5 0 -8 6.5t-5 11.5
q0 9 -5 21q0 4 -3 10t-3 10q-2 1 -3 6t-5 6q-3 -1 -4.5 -6t-3 -6.5t-9.5 -3.5t-8 -8q-16 -8 -32 -15q-9 -3 -17 -5q-4 -4 -16 -4t-16 -5l-16 2q-10 0 -26.5 -1.5t-17.5 -1.5l-6 -1q-4 0 -12 4q-5 0 -16 4.5t-16 5.5l-6 -1q-7 2 -14 5q-31 8 -57 31t-34 41t-11.5 29.5
t-7.5 29t-4 32.5q0 52 20 74q19 17 38 35q4 1 12 7t14 6l21 15q17 0 26 8l38 12q7 2 15 5q15 2 23 2l5 -1h11q16 0 41.5 -3t41.5 -6q11 -4 16 -4l5 2q-2 3 -2 11q0 12 -4 17l2 7q0 9 -5 17l-3 15q-6 5 -6 20q0 13 -8 17q-6 13 -19 27.5t-24 19.5q-5 -1 -12.5 1t-9.5 2
l-26 -6l-18 -6q-1 -3 -9 -6t-10 -7q-4 1 -7.5 -3.5t-5.5 -4.5l-15 -8q-7 -7 -14.5 -15t-7.5 -11l1 -3q3 -10 5 -15q-5 -11 -15 -15q-9 1 -17 2q-6 -2 -13 3.5t-8.5 6.5t-9 9t-7.5 14l-1 6v8q2 7 5 15q0 4 10 15.5t15 14.5q18 23 57 41t71 18h22q9 0 10 -1q13 -4 19 -4
q4 0 11.5 2.5t8.5 2.5q7 0 18 -6t17 -6q4 -3 9 -5q13 -1 24.5 -11.5t23.5 -21.5q5 -3 9 -6t9 -4l25 -18q8 0 14.5 -6t12.5 -12l20 -28l-1 -4q0 -2 5 -6t6 -8l-1 -6l3 -9q6 -10 13 -20q6 -4 6 -10q2 -3 7.5 -4.5t5.5 -10.5q4 -3 7.5 -8.5t3.5 -19.5l3 -8q4 -12 4 -17l-3 -24
v-20q0 -9 2 -12q-2 -8 -3 -16zM394 169q-3 4 -3 12.5t-2 11.5q0 11 -0.5 22t-0.5 22q0 18 1 27q-2 9 -3.5 14.5t-6.5 5.5q-3 0 -9 -3q-6 4 -11 3q-3 2 -9 4t-8 3l-8 1q-6 -5 -14.5 -7.5t-23.5 -2.5q-5 0 -12.5 -4t-11.5 -5q-2 -3 -12.5 -6t-13.5 -7q-13 -1 -16.5 -7.5
t-6.5 -6.5q-8 -5 -26 -7l2 -5q-1 -3 -3.5 -5.5t-5.5 -1.5l-3 -7l-4 -3q-21 -8 -23 -29l1 -5q0 -2 -4.5 -8.5t-1.5 -10.5l-5 -5v-4q1 -4 1 -5t1 -2l-2 -8q5 -9 6.5 -13.5t1.5 -8.5q2 -2 3 -8t2 -10t4.5 -10.5t1.5 -11.5l3 -9q15 -13 30 -25q8 -2 16.5 -3t15.5 -1.5t15 -0.5
l39 2l8 4q29 14 53.5 35.5t48.5 42.5q-2 12 -3 22t-1 24z" />
    <glyph glyph-name="agrave" unicode="&#xe0;" horiz-adv-x="596" 
d="M582 274q0 -15 1 -18l-3 -7q2 -5 -2 -12.5t-4 -11.5l-1 -8q2 -2 2.5 -9.5t0.5 -13.5l-3 -6q5 -7 0 -10q-6 -9 -4 -24q-6 -6 -3 -11v-9q2 -13 -2 -17v-13q0 -5 -12 -13l-3 -10l-19 -1l-6 6l-6 -7l-4 -2l-1 -5q-9 -3 -15 -4.5t-8 -9t-5 -8.5q1 -6 -3.5 -10.5t-8.5 -7.5
l-5 -3l-1 -5q-8 -8 -9 -16l-7 -2l-2 -6l1 -4q0 -7 -3 -10q-1 -5 -1.5 -10.5t-0.5 -7.5v-13q0 -5 -12 -7l-12 26l1 3q-1 7 -2.5 14.5t-1.5 15.5q0 11 1 21.5t2 20.5l-6 -1q-6 -7 -10.5 -12t-21.5 -12q1 -2 -9.5 -6.5t-18.5 -7.5l-15 -9h-6q-9 0 -12 -2l-4 1l-9 -6l-9 2
q-3 -6 -12.5 -6.5t-13.5 -0.5l-31 5h-10l-6 2q-3 2 -14 2q-7 0 -20 7t-24 14q-38 30 -64.5 58t-26.5 50l-4 8q-2 7 -3.5 13.5t-3.5 13.5l-2 19v16q0 22 4 28q3 11 3 16q6 16 9 22l4 3q1 6 3.5 9.5t9.5 11t8 12.5q15 18 27.5 23.5t43.5 14.5q4 5 36 9t36 6h29t21 -1
q13 0 26.5 -1t19.5 -5q15 -4 19 -8l13 -1q6 1 7 2l-3 26l-4 14v4q-3 17 -3 26l-6 17q1 3 -2 13q-3 2 -6 9.5t-7 13t-9 10.5t-13 3l-2 3h-24q-10 0 -12 1l-4 -1q-5 4 -13 4q-7 0 -11 2l-20 -5q-10 -5 -27 -18t-22 -15q-6 -10 -13 -9l-10 -3q-4 1 -8.5 -3.5t-6.5 -4.5l-17 -1
q-8 11 -8 14l1 9q3 10 12 21t17.5 17.5t15.5 11.5q15 10 38 19.5t36 14.5q4 -1 13 -1q6 0 19 1t20 1q6 1 8 1h14l47 -19l20 -2q12 0 14 -3q4 0 14 -6l15 -9q6 -1 31 -17t26 -20l3 -1l14 -12l5 -5l-1 -4q0 -7 8 -8.5t10 -5.5q3 -7 7 -14l12 -19q4 -3 11.5 -19t7.5 -20l9 -20
q0 -10 4 -13q2 -4 3 -14t1 -17q0 -3 -1.5 -5.5t-4.5 -5.5zM394 138q-2 9 -4 14q-1 15 -2 31q-2 3 -3 9t-2 8v74v13l-6 5l-28 3l-22 -3q-3 -9 -16 -9l-4 -2q-1 -2 -5.5 -2h-6.5l-7 -16l-9 -4l-7 -2l-4 -2q-6 1 -10.5 -3t-7.5 -6q-4 1 -5 -4t-3 -6q-5 -7 -10 -13q-1 -9 -2 -13
l-6 -10q-3 -9 -5 -17q-6 -7 -12 -13.5t-12 -12.5t-10 -14q-2 0 -2.5 -2.5t-3 -8t-2.5 -13.5l3 -18l1 -4q1 -7 4 -15t8 -17q6 -5 20 -15t19 -12l17 -3q10 1 13 -3q17 -1 26 -1q11 0 21 2.5t18.5 7t15 8.5t15 12.5t11.5 10.5q4 9 12.5 20t16.5 21z" />
    <glyph glyph-name="acircumflex" unicode="&#xe2;" horiz-adv-x="574" 
d="M592 189q0 -10 -6 -18l1 -3q-4 -10 -8.5 -21.5t-17 -22t-23.5 -20.5l-8 -3q-8 -6 -15 -12l-21 -17l-9 -2l1 -4q0 -5 -7 -10t-8 -7l-10 -5l-3 -8q-7 -4 -18 -6q-2 -3 -8.5 -6t-9 -5.5t-29 -8t-33.5 -8.5q-14 0 -17 -4l-6 2q-24 -2 -31 -1l-5 -2h-12l-26 6q-24 0 -37 6.5
t-16 11.5h-8l-2 -6q-6 -7 -12 -13q-6 -15 -9.5 -18t-18.5 -7l-6 4q-22 34 -22 68q-1 1 -5.5 22t-5.5 24q1 10 -12 25q-3 11 -10.5 25.5t-7.5 22.5q-1 2 -1 10q0 6 -2 9q0 19 -5 60t-5 62q0 30 4 63t10 66q-2 4 -2 10.5v10.5v20q0 9 -2 13v13q0 9 1 25.5t1 23.5q8 20 8 24
q-1 8 -1 18q0 11 5.5 33.5t4.5 28.5l5 11q-1 6 6 15v5q0 13 8 23q2 7 3.5 11.5t5 15.5t8.5 23l8 -1l4 18h8l2 2q7 1 12 -6q3 -1 8 -8t10 -6q7 -9 13.5 -21.5t6.5 -23.5l15 -28l5 -10q3 -2 4 -11t5 -11q2 -14 6.5 -27.5t12.5 -24.5q0 -5 2.5 -12t3 -9t6 -8.5t5.5 -11.5
q0 -4 8.5 -23.5t3.5 -26.5l3 -20q-4 -15 -8 -29q-1 -9 -1 -13q0 -6 4 -9l66 16q5 0 16 -3t17 -3q9 0 12 -3q3 -1 20.5 -8.5t21.5 -6.5q2 -2 9 -3t9 -5l10 -1q11 0 15 -6q9 0 14 -6q6 1 13.5 -6.5t11.5 -8.5q11 -10 23.5 -20.5t15.5 -17.5q2 0 2 -8q0 -2 11 -9l4 -6
q4 -23 4 -33q1 -6 2 -11l5 -7v-4q-1 -7 4 -18l-1 -11q1 -10 3 -19q-4 -6 -5 -14t-1 -20v-11zM490 257q-3 2 -4 9t-3 11q2 17 -4 26v4q0 3 -3.5 8.5t-1.5 9.5q-2 5 -3.5 11t-6.5 10q-18 29 -40 39l-64 18q-3 -2 -11 -2q-18 0 -22 -4q-8 -2 -16 -3q-1 -2 -7 -3t-7 -3
q3 -6 9 -32.5t6 -34.5l-2 -21l-5 -5l1 -5q-2 -9 -5 -21t-7 -26l8 -11q1 -16 1 -23q-2 -12 -6 -16l-4 -24q0 -7 4 -17q-2 -6 -3 -20t-1 -20q-8 -12 -14.5 -22t-22.5 -12q-1 -2 -11.5 -8t-10.5 -13l2 -4h10q12 0 40 -1t42 -1q13 0 26 5t29 11q5 4 17 4q13 7 27 14
q12 0 26.5 17t23.5 27l3 8v5q0 7 2.5 19t2.5 15q2 1 4 30t1 36q-2 9 0 15z" />
    <glyph glyph-name="adieresis" unicode="&#xe4;" horiz-adv-x="596" 
d="M600 266l-3 -5v-30l-2 -3v-12t2 -9l-2 -5q3 -14 -3 -17l-2 -7q-4 -2 -4.5 -8.5t-2.5 -8.5v-7q0 -6 -6.5 -20t-12.5 -22q-11 -5 -12 -12q-12 -10 -24 -19q-11 -6 -15 -11l-5 -1l-5 -7q-5 1 -10.5 -5t-6.5 -7.5t-10 -2.5l-4 -4q-3 -3 -15 -10.5t-15 -10t-6.5 -6t-7.5 -1.5
q-12 -6 -18.5 -7t-13.5 -2q-4 -3 -13 -3t-13 -3q-13 -2 -20 -2l-24 -2q-2 -2 -22 -2h-23q-9 2 -11 4q-10 0 -36.5 11.5t-28.5 10.5l-11 2q-2 -1 -1 -8l-2 -4l-3 -10l-7 -7l-16 -5q-32 0 -46.5 61.5t-14.5 107.5q0 41 -10 93l1 3q-2 8 -4 17q-2 3 -2 11q0 6 -2 9v32
q0 8 -2 25t-2 27l-2 82q0 17 1 35l2 36l2 3q0 20 3 26q0 9 5 26t5 24q0 14 8.5 41.5t8.5 30.5v4q1 9 3 19q3 5 3 10q-1 8 -1 12l3 10q0 16 7.5 19t7.5 6l-2 5q1 6 2 13l8 2q12 -4 13.5 -12t7.5 -9q1 -2 24.5 -34t30.5 -54q4 -14 4 -20q3 -8 5 -14.5t2 -11.5q4 -6 7 -13
t2 -13l10 -14q1 -8 10 -21v-4q0 -4 3 -14t3 -16q2 -3 2 -10.5t2 -11.5v-21q0 -8 -1 -12q13 -1 25.5 0t25.5 3l25 -1l2 -2q10 1 19.5 -0.5t19.5 -2.5q6 0 11 -1.5t15.5 -5t20.5 -5.5q12 -5 25 -10q6 -4 14 -9.5t12 -6.5l10 -8q5 -2 11 -6.5t11 -9.5q5 -10 12 -7q9 -13 19 -25
q4 -13 19 -17q1 -3 10 -9t6 -12l7 -7l3 -9l-1 -4q2 -8 4 -14.5t2 -17.5v-20zM530 324l-58 73q-4 0 -15.5 6.5t-14.5 8.5h-19q-4 5 -17 2l-9 3q-10 -3 -36 -3t-39 -2q-4 3 -16 3h-15l-15 -7q3 -5 5 -15q-4 -6 0 -15l-6 -18q-2 -3 -0.5 -5.5t2.5 -3.5q0 -12 -8 -17v-17l-3 -9
l-3 -10l1 -7q3 -5 3 -15q-1 -12 -1 -18t1 -9l2 -2v-19q0 -8 -4.5 -21.5t-4.5 -18.5t-16 -18l-4 -7q-6 -12 -9.5 -14.5t-8.5 -16t-3 -14.5q-9 -14 -9 -18q-6 -6 -6 -11l2 -4l-2 -7l8 -11l8 2l4 -4q7 -4 14 -7t15 -3q12 -2 20 -3t26.5 -2t28.5 -2l13 -1l30 6l21 3l47 28
q1 5 11 9t11 8q5 0 10 5t8 5q5 7 18.5 25t20.5 33q3 2 6.5 10t5.5 14q1 8 3 16l3 9q4 3 4 15q0 8 1 17l2 18q2 3 2 11q0 6 -5 21t-10 24z" />
    <glyph glyph-name="atilde" unicode="&#xe3;" horiz-adv-x="482" 
d="M478 74q0 -10 -7.5 -14t-12 -5.5t-6.5 -7.5t-6 -6q-11 -11 -27 -19l-3 1q-7 -3 -21.5 -13t-18.5 -10q-20 -9 -22 -9l-14 2l-9 -3q-2 4 -20 7q-7 7 -12 1l-10 6l-13 -1q-43 0 -96.5 42t-79.5 86l-9 22q-2 7 -3 11.5t-5 6.5q-7 13 -9.5 18.5t-2.5 11.5q-3 5 -6 20t-3 22
q0 1 1.5 5.5t-1.5 6.5v24q0 9 2.5 17t3.5 15l8 20l6 4q0 8 6 21t14 27q2 17 43.5 56.5t57.5 39.5q3 5 10.5 10.5t14.5 10.5q8 0 19 6t14.5 7.5t16.5 6t20 7.5q14 1 25.5 4.5t14.5 3.5q8 0 19 -4l8 5l7 -2l2 5l7 -11l5 -2h13q7 0 16.5 -5.5t21.5 -13.5q12 -10 25 -20l14 -17
q1 -5 6.5 -11.5t6.5 -8.5l-2 -18l-7 -8q1 -8 -6 -11.5t-16 -4.5l-15 3l-4 2q-2 12 -3 24l-8 9l-32 18q-8 -2 -15.5 -4t-16.5 -4.5t-11 -0.5q-3 -5 -10.5 -6.5t-11.5 -2t-7 -8.5l-9 -8l-3 1q-2 0 -4.5 -3.5t-5.5 -2.5q-7 -11 -16 -20t-7 -16q-5 -5 -17 -26t-15 -29v-4
q1 -4 -2.5 -10.5t-4.5 -9.5q1 -3 0 -11.5t-2 -17.5q0 -10 2.5 -27.5t2.5 -22.5l2 -2q3 -16 0 -20q6 -19 8 -27t2 -20q4 -7 8 -13.5t6 -10t5.5 -6.5t2.5 -7q4 -2 7.5 -9t6.5 -9l12 -20q11 -14 24 -17.5t35 -3.5l30 3q11 4 18 3l9 5q12 6 16 11l13 11q0 19 0.5 21.5t10.5 19.5
l12 -1q11 0 18 -3l9 -10q-3 -6 -3 -12q2 -11 2 -16t-2.5 -10t-16.5 -14z" />
    <glyph glyph-name="aring" unicode="&#xe5;" horiz-adv-x="481" 
d="M494 116q-7 -4 -6 -11q-6 -6 -9.5 -12t-1.5 -13l-17 -20q-4 -2 -5 -9.5t-4 -8.5q-6 0 -10 -6t-6 -7q-6 -9 -11 -3l-4 -10l-9 -3l-17 -1q-2 -4 -9.5 -7.5t-18.5 -3.5q-6 -3 -6 -5h-16l-5 -3q-15 -1 -30 -3l-28 -2q-17 0 -24 4q-8 2 -42 6.5t-90.5 81t-56.5 132.5q0 9 1 13
q-2 4 -3.5 20t-1.5 28l4 21q0 16 8 37t8 36q5 9 12 21t16 27q3 1 5 8t7 8l1 4q6 6 13 12q1 10 35.5 32t52.5 31q12 3 25 6q4 0 13 4t15 4q9 0 12 6q5 0 12.5 2.5t9.5 2.5l18 -3q4 1 13.5 -1.5t17.5 -4.5q10 -12 21 -10q9 -3 21 -6t17 -8l11 -2l10 -10l5 -2q11 -8 13 -26
l-1 -7l-13 -12q-5 -6 -10 -11l-7 -4l-7 4q-6 13 -6 26q0 8 -6 13.5t-17 12.5q-10 -5 -21 -10t-14 -11q-12 -4 -18 -10.5t-11 -10.5q0 -13 -8 -11l-14 -10l-9 2q-3 -8 -17.5 -23t-16.5 -19l-5 -8q0 -3 -3.5 -11.5t-3.5 -15.5q0 -2 -3 -10.5t-1 -12.5q-3 -10 -5.5 -22.5
t-3.5 -14.5v-17l-4 -28l-6 -52l8 -39v-4q0 -4 5.5 -8.5t8 -6.5t7.5 -11.5t9 -12.5q0 -4 5.5 -7.5t4.5 -7.5q13 -12 22.5 -15.5t31.5 -3.5q28 0 60 8q4 3 11.5 5t11.5 3l28 18q11 12 18 20t7 21q-1 5 -8 10.5t-9 8.5l2 12q5 5 10 11q3 0 12.5 -6t12.5 -7q8 2 11 -9.5t3 -15.5
q-4 -18 -7 -36z" />
    <glyph glyph-name="ccedilla" unicode="&#xe7;" horiz-adv-x="558" 
d="M546 503q-3 -3 -3 -11q0 -6 -3 -8l-1 -16q2 -7 2 -11.5v-9.5v-22l2 -3v-20t2 -21l-2 -4v-25q-3 -10 -6 -19l1 -10q-1 -6 -2 -7q1 -7 -5 -15l1 -8l-3 -9q-8 -8 -7 -19q-4 0 -5 -7.5t-5 -7.5l-4 -13l2 -7l-8 -13q0 -8 -2 -14.5t-4 -15.5q-5 -2 -7.5 -5t-9.5 -13v-13l2 -9
l-6 -8v-8q0 -5 -6 -11.5t-4 -12.5q-1 -1 -20.5 -60t-34.5 -59q-8 9 -15.5 18t-10.5 15v22l-4 8q-3 -2 -13 -14t-13 -15q0 -3 -4.5 -6.5t-5.5 -5.5q-7 -4 -22.5 -10.5t-18.5 -8.5l-7 -1q-15 1 -26.5 2t-19.5 1q-4 2 -13 0q-62 11 -107 35.5t-65 74.5l-12 18q-3 8 -5 16
l-11 26q-2 7 -3 15q-7 20 -7 48q0 33 21 64t41 60q7 6 11 8.5t6 3t9.5 6.5t10.5 11q18 12 34 15l4 -1l69 11q4 -2 18.5 0.5t17.5 2.5q14 -2 31 -4.5t27 -11.5l5 -2l3 1l14 -6l9 -3l10 -8q3 3 3 11q0 7 -2 23t0 19q-1 4 -1.5 8.5t-0.5 15.5v24l2 5l-2 77l2 10l-2 18v33
q2 3 7 41.5t14 52.5v4l14 51q2 3 3.5 5.5t3.5 3.5l4 2q6 -3 12 -5l6 -6q6 -2 13.5 -12t9.5 -11q1 -3 15 -28.5t13 -38.5q7 -5 16 -17t13 -15q6 -10 6 -15v-11q0 -4 3 -13t3 -14q14 -14 18.5 -20.5t4.5 -20.5q0 -5 2.5 -15t2.5 -12q0 -5 -3 -8zM381 158q-3 7 -6 21t-5 21
l-1 13q3 8 3 17q-1 16 -1 23q-3 4 -1 17t4 24q-5 7 -6 19t-1 26q-13 6 -20.5 9.5t-8.5 5.5l-7 2q-2 4 -13.5 5t-18.5 1l-14 -10q-4 0 -9.5 -3.5t-9.5 -1.5l-4 -5q-4 1 -7.5 -1.5t-6.5 -7.5l-12 -4l-7 -5l-8 -1q-10 -7 -18 -18q-2 -6 -11 -6l1 -3q-2 -2 -16.5 -15t-17.5 -18
l-12 -9l-5 -10q-7 -8 -13 -15l-3 -11q-2 -12 -3 -23q-6 -3 -6 -8l2 -16q6 -16 3 -24l-1 -3q0 -3 6 -9q0 -15 8 -21q1 -3 4 -7t6 -6l4 -10q0 -9 10 -14l8 -13l24 -10q10 -8 14 -14q14 1 34 -8t23 -9q39 0 69.5 28.5t51.5 48.5q2 4 2 13q-2 22 -4 45z" />
    <glyph glyph-name="eacute" unicode="&#xe9;" horiz-adv-x="552" 
d="M531 431q1 -5 -0.5 -11t-2.5 -14l3 -6q1 -4 3 -30t2 -40q0 -12 -1 -14l2 -14q-3 -7 -5 -7q2 -7 3 -19.5t1 -19.5l-3 -12q2 -3 -3.5 -12.5t-9.5 -15.5q0 -7 -4 -12t-7 -9q1 -9 1 -12q0 -6 -3 -8q6 -2 6.5 -8t1.5 -11l-3 -8h-11l-11 -16l-3 -2q-2 -14 -9 -21q-6 -3 -15 -12
q-5 -1 -5 -13q-2 -11 -3 -22l-8 -10q0 -5 -10.5 -16.5t-15.5 -10.5q-10 -15 -15 -17q0 -11 -8 -11q-10 0 -10 19q1 12 1 14h-5l-25 -11q-1 -1 -9 -4.5t-15 -12.5l-11 -5q-18 -3 -20 -4l-45 -2q-7 0 -21.5 4.5t-46 15t-54.5 25t-49 32.5q-31 46 -47.5 73.5t-16.5 73.5
q0 28 27 84t53 48l61 37l41 9q1 3 5 7t9 0q9 7 30 7q6 -2 12 -3h9q10 -6 14 -8t11 0q5 -4 26 -4q3 1 16 -5t23 -10q2 3 2 9t0.5 9t0.5 7v5q0 6 2 9q-1 6 -1 13.5v11.5q0 16 3 49t3 50q0 12 3 37t3 38q0 41 5 82.5t17 79.5l11 -1h4q6 0 11 -8q6 -2 10 -6.5t8 -8.5l6 -10
q8 -3 8 -16q5 -3 19 -37t21 -42l-1 -5l3 -10v-6l5 -5q-2 -10 -2 -15q0 -2 2.5 -6t3.5 -5l-1 -5q0 -9 6 -12q8 -13 13 -47t12 -46l2 -18zM387 158q0 8 -6.5 28t-6.5 24q-5 14 -7 34.5t-2 39.5v45l-2 16q-8 5 -16 5h-10q-7 0 -14 1l-35 8l-4 1q-2 -2 -5 -3.5t-4 -3t-14 -5.5
t-23 -7q-8 0 -17 -7l-9 -3l-4 1q-7 -2 -13 -3l-38 -26q-1 -8 -8.5 -16.5t-16.5 -14.5l-13 -27l1 -8q-2 -2 -2 -9q0 -6 1 -8q-3 -8 -6 -15q2 -6 0 -17t-2 -17l1 -14q5 -7 3 -18q10 -8 11 -14q5 -8 16 -19.5t13 -15.5q-1 -7 16.5 -22.5t25.5 -19.5l13 -11q4 -1 23 -6.5
t24 -5.5q14 0 28 5t28 11q2 2 9.5 5t9.5 5q21 7 34.5 18t29.5 31q-4 23 -6.5 38t-2.5 20z" />
    <glyph glyph-name="egrave" unicode="&#xe8;" horiz-adv-x="600" 
d="M601 168q-2 -5 -3.5 -8.5t-1.5 -7.5l-7 -4q3 -6 3 -10q-13 -9 -13 -19l-3 -3q-2 -2 -3 -8.5t-6 -7.5l-8 -10q-6 -4 -10 -7t-5 -7q-8 -4 -8 -11q-3 -3 -6.5 -3.5t-2.5 -4.5l-12 -10l-4 -7l-5 -1q-1 -8 -15 -13q-4 -5 -26.5 -15.5t-30.5 -11.5q-5 -4 -19.5 -5t-27.5 -1
l-2 -2q-9 0 -18 -1l-18 -2l-12 1l-14 2q-10 -1 -15 -1q-4 0 -9 3l-4 -1l-16 4q-12 5 -22 9.5t-12 9.5l-9 6q-7 0 -10 5q-5 2 -10.5 3.5t-8.5 1.5q-5 4 -15 8.5t-28 10.5q-4 3 -8.5 6t-5.5 5.5t-9 15.5q-31 27 -53.5 59.5t-22.5 66.5l3 25q-2 2 -2.5 8.5t-2.5 7.5q0 14 -2 16
q4 3 0 18q2 7 5 15l-1 4q0 5 2.5 12.5t2.5 10.5l13 36q5 7 4 11l16 26q-1 5 3.5 10t4.5 7l15 21t8 11.5t8 5.5q12 13 26 28t25 20q3 0 10 4t12 3l14 5q1 1 16 9q9 0 28 8t28 9q4 2 11 0l9 1q7 0 30.5 -2t26.5 -5l30 1l5 4l11 -7l16 -3q5 -6 25 -6q11 -4 18 -4q10 -7 20 -13
q6 -1 12.5 -8.5t11.5 -9.5q2 -4 10.5 -18t9.5 -18q2 -1 2 -3v-3l2 -4v-6l4 -4q-5 -6 -9 -12l2 -8v-16q1 -7 3 -14l2 -7q-4 -6 -2 -7l-7 -23l-7 -6q0 -7 -11 -13l2 -5q-5 -6 -9 -12q-7 -2 -8 -6q0 -3 -4 -7l-7.5 -7.5t-9.5 -8.5l-11 -4l-1 -5h-11q-5 -10 -9 -12t-15 -2l-5 -5
q-9 -7 -16 -5q-2 -3 -17 -3q-10 0 -15 1q-7 -7 -16 -7q-15 0 -30.5 0.5t-26.5 5.5q-5 0 -20.5 11t-21.5 13q-1 -1 -4 -16t-2 -20l-3 -13l6 -13v-4q0 -4 2 -10.5t1 -10.5l7 -7q-1 -5 3 -10.5t3 -8.5q8 -15 18 -24q8 0 11 -8q2 -1 2 -9l4 -3q18 -9 16 -18q8 -3 7 -8
q3 -7 11.5 -8t11.5 -3q10 -2 14 2h16q7 2 11 0l15 3l16 6q8 0 22.5 6t17.5 7l11 2q20 15 29.5 24t14.5 23q6 10 9 14l1 11q-1 2 -2 4.5t-4 3.5l-4 3h-9q-1 -3 -6.5 -4t-7.5 -4l-3 2l2 5l-3 8q-1 1 -2 6q0 14 5 27l-1 4q0 2 5.5 3t5.5 4l13 -4q20 0 21 4q5 -5 9 0
q11 -2 16 -2l18 -25v-5q-2 -6 6 -10q0 -3 -3 -8.5t-1 -9.5zM497 385q-3 3 -5 13t-6 13q-2 7 -3 15q-2 1 -2 9l-2 5l-7 19q-3 1 -3 4.5t-2 4.5q-3 8 -22 14.5t-30 6.5q-5 0 -11.5 -2.5t-15.5 -9.5q-10 0 -25 -9.5t-15 -17.5q-5 -3 -10 -7t-4 -8q-3 -3 -5.5 -4t-0.5 -5l-5 -4
l-12 -26q-3 -7 -4 -12q-4 -3 -3 -7.5t2 -8.5l-1 -4q-4 0 -6.5 -5.5t-3.5 -8.5q-2 -6 -3 -12q-5 -6 -7.5 -12t-4.5 -11q3 -4 17 0q2 -6 10 -6q13 -8 18 -14l6 1q17 -6 30 -6l24 3q2 2 4.5 2h5.5l4 1q8 0 20 2.5t19 4t13 3.5q12 0 19 10t11 15q0 11 4.5 20.5t12.5 21.5z" />
    <glyph glyph-name="ecircumflex" unicode="&#xea;" horiz-adv-x="604" 
d="M600 144q-3 -2 -2.5 -6.5t0.5 -7.5l-3 -6q-5 -7 -10 -10.5t-4 -8.5l-6 -12q-12 -7 -11 -15l-11 -8q-6 -12 -13 -18q0 -5 -3.5 -7t-12.5 -6l-7 2q-1 -4 -1 -8l-2 -4l-12 -7q-11 -3 -18 -4t-7.5 -6t-5.5 -5q-11 0 -13 -6l-15 -3q-5 -2 -15 -2q-7 -1 -11.5 -2t-17.5 -1.5
t-23 -1.5h-14l-29 -1l-2 2h-15q-9 0 -13 2q-5 -1 -12.5 1t-11.5 2l-18 6l-5 -1q-10 0 -44 16t-38 24q-9 5 -17.5 13t-14.5 14.5t-17.5 20.5t-26.5 34q-6 11 -12 15q-1 8 -10.5 22t-6.5 26q-3 2 -6 19.5t-1 20.5q-2 4 -3 12t-3 13q6 44 24 106t38 62l15 19q13 5 13 11l9 9
q5 1 8 3t0 7q2 1 10 6.5t14 4.5l8 5l3 5l13 8q1 5 20 14t26 8q13 15 26 15l17 -4q4 2 11 0t10 -2q5 0 17 2t13 2l11 3l23 -4h4l16 -3q7 -9 15 -6l11 -4q5 1 9.5 -2t11.5 -9l4 1q4 0 11 -3t11 -3q27 -13 55 -25q16 -10 26 -33l-4 -2q6 -14 9.5 -23t3.5 -21l-3 -6l-1 -13
q1 -2 1 -9q4 -7 4 -16l-1 -5l-6 -11q-1 -15 -18 -19l-9 -12l-5 -2q-15 -14 -29 -27q-10 -3 -21.5 -11t-14.5 -9q-13 0 -15 -6q-7 -3 -18.5 -5.5t-15.5 -2.5l-63 2q-4 2 -12 2q-6 0 -9 1h-5q-14 0 -28.5 3t-28.5 8l-4 -11q2 -8 2 -20.5v-23.5q2 -8 6 -22.5t10 -35.5
q9 -5 8 -11l9 -11l4 -1q28 -18 56 -35q17 -5 29 -13q33 5 65 5q11 0 27 8q6 -1 16.5 7t19.5 15v4q15 17 27 36q4 10 4 15l-1 3q-9 9 -7 18q-1 1 -18 1q-6 0 -17 7t-14 12q2 1 5 14t21 17q11 -4 19.5 -5.5t22.5 -1.5q6 -1 7 -2l10 -3q9 -6 16.5 -11.5t6.5 -11.5l-3 -3
q2 -2 2 -8t3 -9l3 -9q3 -17 -5 -31zM508 358q-3 9 -5 17t-5.5 14t-8.5 15q-3 2 -10 16t-13 18q-21 28 -53 41l-6 -1q-11 -15 -27 -15q-4 -6 -7 -8.5t-13 -9.5q-10 -15 -13 -29q-9 -4 -18 -7q-4 -10 -17 -17q-5 0 -10 -9.5t-8 -16.5q-2 -2 -2 -5.5v-4.5l-4 -5l-3 -12
q-3 -7 -3 -12q6 -8 13 -15q6 -8 25.5 -11t23.5 -5q15 0 25.5 -2t17.5 -3q15 4 28 6t44 5q3 2 20 12t26 22q0 3 3 8t3 8z" />
    <glyph glyph-name="edieresis" unicode="&#xeb;" horiz-adv-x="458" 
d="M447 657l-5 -9l-31.5 -31.5t-36.5 -18.5l-10 5q0 5 -4 10t-5 7l2 18q6 8 13 13.5t14 5.5q2 7 5 15l-2 5q-3 18 -2 33q-5 8 -9 16q-5 6 -18 6l-17 -2q-7 -7 -15.5 -15t-10.5 -11t-5 -5.5t-4 -5.5q-7 -2 -8.5 -12.5t-4.5 -12.5q-8 -15 -11.5 -22.5t-3.5 -15.5q-9 -3 -4 -12
q-2 -14 -5 -21v-13l2 -5q8 -16 17 -32l-1 -3q0 -6 6 -10l10 -20l20 -2l9 -3l16 -2l7 -5l5 1q11 -2 23 -4l13 -4l3 1q13 -4 19 -4l14 -4q13 1 17 -12l-5 -8l-3 1q-2 0 -7.5 -2t-7.5 1h-14q-6 0 -9 -2q-5 1 -13.5 -1.5t-11.5 -1.5q-10 -13 -16 -12l-4 -3q-15 -5 -32 -3l-1 -5
q0 -7 1 -13q2 -3 2 -11q0 -9 -2 -15l2 -2v-17q4 -3 3 -9.5t1 -9.5l-4 -7q3 -11 -3 -29t-14 -29l-2 -14q0 -7 -2 -13t-4 -11v-5q-6 -12 -6 -16l3 -4q-1 -3 1 -13.5t2 -12.5q-2 -10 -4 -19l-2 -5q-4 -2 -4 -13q-3 -10 -6 -10l-2 -7q-7 -4 -12.5 -30t-15.5 -25l-3 -8
q-6 -5 -6 -15q-2 -2 -2 -12l-3 -6q-3 -10 -3 -16l-2 -16l-6 -8q1 -1 2 -8v-11h-12l-11 7q-6 14 -11 44.5t-5 50.5l-2 8q-2 16 -11 59.5t-9 66.5q0 20 -1.5 34.5t-7.5 26.5l1 3q-2 7 -3 15q-2 4 -2 8v6q1 11 1 18q0 8 -2 31t-2 26l-2 32l-4 9l-10 -2q-49 7 -82 39q-2 9 -2 13
l8 9q2 -3 15.5 -5t18.5 -2q18 0 28 3q11 5 15 7q13 2 19 2q0 12 3 18l-2 12q0 21 15.5 63t27.5 72.5t38.5 56.5t29.5 29q8 8 14 9l47 7q15 0 18 2q4 -1 8.5 -3t8.5 -1l10 -5l4 1l34 -25q2 -5 8.5 -10t11.5 -10.5t14 -14.5l3 -7q1 -18 1 -27q0 -12 -8 -19z" />
    <glyph glyph-name="iacute" unicode="&#xed;" horiz-adv-x="407" 
d="M416 697l2 -8q-3 -1 -3.5 -6t-0.5 -7l-1 -5q-5 -3 -10.5 -12t-8.5 -13l-16 -2q-11 -8 -13 -8q-11 0 -25 8q0 13 8 24l3 16l-3 40l-9 10l-10 2l-10 -2q-1 -1 -7.5 -5.5t-5.5 -10.5l-5 -7q1 -2 -6 -14t-7 -14l2 -2q0 -8 -1 -14.5t-5 -8.5q-4 -9 -8 -17l-4 -4q0 -9 0.5 -14
t1.5 -23t5 -20v-4q-3 -8 4 -11q1 -4 1.5 -13t1.5 -17q10 10 16 6l13 3q13 -3 27 -6q0 -6 21.5 -12.5t31.5 -6.5l5 -3q0 -11 -10.5 -13.5t-12.5 -4.5q-7 -1 -16.5 1.5t-12.5 2.5q-7 0 -15 -7.5t-12 -11.5l-21 -3v-12l-3 -4l-5 -11l4 -24q-2 -5 0.5 -12.5t1.5 -10.5
q3 -4 6 -14t5 -13q-3 -8 -3 -10t2 -5.5t1 -6.5l2 -6l-2 -13l-5 -9q-1 -4 -3 -9.5t-4 -11.5q0 -5 7 -7q10 0 7 -10q-5 -8 -5 -11l1 -3q6 -4 6 -11q0 -12 -11 -26l-4 -12q-5 -6 -8 -9.5t-2 -7.5l-5 -11l-5 -3l1 -3q-4 -8 -8.5 -17.5t-11.5 -13.5q0 -9 -0.5 -18.5t-0.5 -18.5
q0 -4 -3.5 -22t-3.5 -28l-4 -7v-9q0 -7 -5.5 -23.5t-5.5 -21.5q-2 -1 -8 -8t-20 -13l-9 5l1 7q0 8 -3 26t-3 28q0 4 -3 25.5t-5 23.5v6q-16 42 -28.5 75.5t-12.5 60.5v16q-2 5 -6 17t-3 18l-4 16q-1 15 -1 22q-2 10 -3 20l-4 12l1 5q0 9 -1.5 23.5t-1.5 15.5q0 4 2 16l-2 9
l2 11q-5 7 0 11q-2 6 0 25l-2 3q-5 -4 -9.5 -8t-10.5 -4t-25 8t-24 13l8 10q11 2 16 8q8 5 27.5 8t31.5 3l7 16q5 5 5.5 16.5t1.5 21.5q2 4 6.5 23.5t5 22t8 13.5t5.5 19q3 12 14.5 31.5t12.5 22.5q10 8 17 12.5t15 4.5q-1 3 0.5 5.5t4.5 0.5q1 3 7 5t12.5 8t15 13t17.5 6
q7 7 19 7q6 -1 12 -1q5 -3 17 -3h11h8q9 -5 21 -10.5t16 -6.5l12 -11q3 -13 8 -15l2 -9l3 -2q0 -6 -0.5 -12.5t-3.5 -9.5z" />
    <glyph glyph-name="igrave" unicode="&#xec;" horiz-adv-x="262" 
d="M232 690q-1 -5 -5 -11q-6 -6 -8 -9q-7 -2 -11.5 -5.5t-7.5 -5.5q-7 2 -13 -5t-10 -7q-10 -3 -19 -5q-6 -4 -19 -4h-12q-3 4 -11 4q-7 0 -11.5 7.5t-10.5 20.5q-9 3 -9 8v22l6 6q9 5 13 8.5t4 9.5l-12 13q1 3 6 12t5 14l-1 6q3 8 11 11t17 3q12 0 31 2.5t22 2.5
q10 0 20.5 -4.5t16.5 -6.5l16 -19l1 -50q-3 -2 -5 -9.5t-4 -8.5zM246 317q-4 -7 -2 -17q-3 -1 -5 -19t-1 -23v-9q-2 -4 -3 -17t-2.5 -17t-2.5 -10q0 -11 -1 -18.5t-4.5 -18t-3.5 -15.5l1 -4q-7 -21 -7 -37l1 -8l-5 -16q-3 -8 -3 -13l-3 -12q-2 -6 -3 -12l-4 -15l-8 -28l1 -3
l-10 -5q-6 20 -12 30t-10.5 14t-5.5 7q1 5 -2.5 10.5t-6.5 12t-3 10.5l-7 5q-5 5 -9 11l-16 17q4 9 1 12q-4 9 -4 14q-6 10 -6 14l-2 5q-3 2 -3 9q0 8 -3 11q7 7 7 13q0 3 -5 13l1 8q-2 3 -2 11v9q-1 1 -2 7l1 6q5 4 -3 14q-3 12 -3 18l1 5q-1 5 1.5 10.5t2.5 7.5l-1 5
q-2 2 -2 6.5t-1 7.5q2 4 2 12v14l6 11q1 6 3 10t2 7l-4 6q0 6 2.5 15t5.5 17q-4 8 -4 20v12q7 7 10.5 16.5t13.5 17t13 11.5q4 2 11 7.5t11 9.5t10 11l5 10l8 3q2 2 8 3t7 3q7 -2 22 -33t15 -38l-1 -3q9 -9 11.5 -48t2.5 -74z" />
    <glyph glyph-name="icircumflex" unicode="&#xee;" horiz-adv-x="262" 
d="M231 679q-7 -11 -17 -28.5t-20 -25.5h-16q-6 -1 -13 4q-5 0 -12 5t-12 4q-2 3 -28 20.5t-26 43.5q0 4 3.5 15.5t1.5 18.5q2 8 8 11q3 11 9 18.5t19 17.5q1 4 7 6t14 4q3 -1 12.5 -2t13.5 -6q8 -3 16 -5l10 -4q2 -3 14.5 -13.5t12.5 -20.5q3 -3 3 -11v-12q5 -11 5 -17
q0 -5 -3.5 -11.5t-1.5 -11.5zM247 223q-2 -2 -3 -3.5t-1 -2.5l1 -4q0 -7 5 -14q0 -9 -0.5 -13t-2.5 -6v-13t2 -9q0 -13 -6 -15l3 -7q0 -9 -0.5 -15t-5.5 -9l-8 3q-3 -11 -6 -10l-1 -11q-16 -8 -28.5 -31t-13.5 -25q-4 -1 -6.5 -6t-4 -6.5t-1.5 -18.5l-1 -7l-11 3
q-15 17 -32 56q-17 45 -24 62l-3 14l-6 23v4l-3 19q-1 1 -1 14q0 5 -2 7l1 51q-2 2 -2 8.5t-2 8.5q0 11 3 33t3 33q-2 1 -1 8t-3 9q0 8 -1 16.5t-2 17.5q0 35 14 72l-1 4q0 5 7.5 20.5t13.5 24.5q2 -1 4.5 1t6.5 5q4 0 9.5 6t8.5 12l11 9l5 -3q5 0 12 -4t10 -4l9 -6l8 -16
q3 0 6 -6.5t7 -7.5q1 -2 5.5 -9.5t5.5 -12.5l10 -17l3 -13q4 -13 4 -20q0 -16 -4 -28l2 -2q1 -8 -1 -23.5t-3 -26.5q6 -6 5 -11l4 -14v-9.5t-3 -6.5q2 -15 5 -30q2 -4 2.5 -8.5t1.5 -9.5q-3 -3 -2 -10t1 -11t-3 -9zM177 713q-21 -2 -23 -7q0 -11 -4 -23q0 -1 3 -1.5t7 -1.5
l11 1q4 0 5 7.5t3 8.5z" />
    <glyph glyph-name="idieresis" unicode="&#xef;" horiz-adv-x="552" 
d="M547 86q-5 -13 -10 -25q4 -11 4 -19q0 -6 -5 -23l9 -33l-4 -12l-11 -13l1 -11q-4 -7 -7.5 -11t-12.5 -11l-8 -2q-5 -9 -5 -25h-6l-7 -4q-13 -29 -37 -48l-56 -38q-4 -1 -10.5 -4t-10.5 -2q-7 -6 -20 -12t-22 -6q-3 0 -8 -5t-10 -2h-12q-11 2 -24 -6q-15 2 -26 -2l-16 4
q-17 2 -25 2q-5 0 -15 3t-14 4q-2 2 -21.5 9.5t-20.5 12.5q-23 7 -44.5 42t-21.5 62q0 11 5 21t14 18l1 4l10 -1l8 4l29 3l13 -2q5 1 10 -4.5t8 -5.5l4 -9l-9 -9l-11 -5l-16 2q-5 -5 -3 -11l1 -23q3 -8 13.5 -20t19.5 -17q0 -19 15 -26t37 -7q14 0 29.5 8t30.5 15l4 -1
q4 0 11 6t9 7q11 0 20.5 15t12.5 17q4 11 8 21l4 7q3 18 5.5 30t2.5 26v17v102l-2 4q3 4 0 17l-6 1q-35 -15 -67 -15l-10 2h-24q-7 0 -20.5 2.5t-20.5 1.5q-17 4 -37 8.5t-52.5 27.5t-54.5 52q0 3 -5 10t-5 11l-13 29q-10 44 -19 88q0 13 4 19q1 11 3 22q7 8 10.5 16t9.5 27
q3 2 6 8t8 13t22 22.5t23.5 21t16.5 12.5q4 5 24.5 19.5t29.5 19.5l5 -1q16 5 31 10.5t17 3.5q2 1 11 0q6 1 6 3l2 -2q7 0 15 1t12 4l18 -2l3 1l15 -5q3 -6 25 -6q14 -3 21 -4l14 -10l3 1l11 -5q3 1 9 1t18 -2q11 -5 24 -20t10 -26q3 -12 13 -18.5t12 -12.5l8 -5
q8 -10 7 -14l8 -14l-3 -4q7 -11 13.5 -31.5t12.5 -33.5v-4q11 -52 23 -104l-3 -40q6 -17 8 -41t2 -46q-2 -3 -2 -11v-9zM366 474l-8 -2q-23 16 -44 16q-12 0 -32 -4q-16 -16 -39 -21l-6 1q-4 -3 -8.5 -8t-6.5 -8q-12 -9 -43 -38t-32 -35q-3 -1 -5 -7.5t-3.5 -12t-3.5 -10.5
t-7 -14l1 -23l2 -2l-2 -7q8 -14 1 -20q0 -15 6 -29q7 -3 8 -16t6 -17l9 -20q0 -4 4 -9.5t6 -8.5q11 -7 23 -14q2 -4 10 -6t10 -6q14 -5 20 -7l32 -7l14 2q6 -3 14 -3q16 0 36 10.5t31 21.5v7q1 10 2 21q4 4 5 19.5t1 25.5q0 19 -3 57t-3 58q3 6 4.5 22t1.5 31l6 53z" />
    <glyph glyph-name="ntilde" unicode="&#xf1;" horiz-adv-x="535" 
d="M514 200l2 -7q1 -8 1 -12l-3 -7q2 -4 2 -13q0 -10 -1 -15l-14 -28l1 -13q0 -7 -5 -15l2 -5l-2 -12l14 -51l1 -6q0 -5 -2 -8t-3 -4l5 -7v-7q5 -3 5 -11l-1 -5q-3 -2 -3 -9t-2 -9l-2 -4l2 -5l-6 -13l2 -5l-3 -13q2 -4 -2 -10.5t-8 -12.5q0 -4 -6 -9t-6 -10q-9 -9 -14 -8
l-8 -6l-7 2l-7 -6q-7 1 -18 -7t-15 -11l-3 -7l-7 -5q-12 0 -17 -6l-5 -1l-3 -5l-5 1q-3 0 -8 -5t-9 -6l-9 3q-8 0 -20 -10q-9 -1 -14 -12q-12 -6 -19 -7l-3 1l-19 -5l-7 -4q-26 0 -75 12t-74 12q-7 0 -18 11.5t-12 11.5l-6 12q-10 4 -19 51.5t-9 67.5q2 8 6.5 21.5t23.5 25
t42 11.5l21 -3q12 -7 18 -11v-14l1 -5q-3 -17 -15 -19q-9 3 -11 13l-8 2l-8 -12q1 -4 -3 -9.5t-4 -7.5q-2 -3 -2 -11q0 -6 -2 -9l5 -11q-7 -5 -2 -9q-1 -8 4.5 -16t10.5 -16q9 -8 18 -13.5t19 -7.5q13 1 25 0t24 -3q17 0 28 2.5t18 7.5q11 0 21.5 10.5l13.5 13.5l3 6
q3 4 10.5 7.5t12.5 9t9 11.5l20 122q0 13 -2 18q-1 12 0 17q-4 16 -6 36t-2 39l-4 8q-4 -3 -14 -3q-7 0 -14 -0.5t-9 -4.5t-9 -5h-12q-17 3 -25 3.5t-23 0.5q-7 0 -24 5.5t-21 5.5q-9 4 -32 9q-29 18 -49 31.5t-28 31.5q-4 1 -4 6.5t-2 6.5q-11 22 -21 45v5q-2 13 -3 26
q-6 15 -11 29t-5 24q0 7 8 22t15 28v5q0 10 15.5 27.5t16.5 19.5q5 1 10.5 6t12 11.5t18.5 17.5t18 10q10 4 28.5 10.5t26.5 6.5q3 2 11 2q7 1 10.5 2.5t28.5 6t28 5.5q6 -2 16 -2.5t19 -0.5q3 -2 10 -2q6 0 8 -2q25 -5 39 -7.5t23 -2.5h17q6 -3 9.5 -5t5.5 -4.5t7 -7.5
t5 -8q5 -2 9.5 -10.5t8.5 -11.5t6 -12q0 -18 2 -22l-2 -14q6 -4 11.5 -13.5t9 -16.5t6.5 -12q3 -13 7 -25l7 -24q7 -4 7 -18t2 -18l-3 -4q2 -6 4 -11l3 -12l-2 -6q0 -2 3.5 -9.5t2.5 -11.5l2 -3v-9q0 -14 -1.5 -24t-5.5 -19zM317 503l-8 3q-10 -5 -15 -6q-13 -8 -19 -13h-6
q-9 -11 -19 -15q-6 0 -12 -2.5t-9.5 -7.5t-5.5 -6q-3 0 -6.5 -4t-6.5 -5q-1 -2 -6.5 -5t-10 -7.5t-21 -25t-26.5 -25.5q-3 -10 -5 -19t-5 -10q2 -7 5.5 -22.5t3.5 -24.5l2 -8l1 -35q9 -17 19 -33q1 -5 4.5 -12.5t8.5 -13.5q2 0 20 -8t26 -4q2 -1 6 -1.5t7 -0.5q6 0 8 -3h52
q11 0 24 12t18 17v56v24q2 2 2 9t1 11q-2 4 -2 12q1 12 1 17l3 55q2 6 5 41.5t2 43.5l2 6q0 3 -13.5 5.5t-24.5 4.5z" />
    <glyph glyph-name="oacute" unicode="&#xf3;" horiz-adv-x="519" 
d="M519 210q-1 -2 -6.5 -8t-6.5 -11l1 -4q-2 -10 -3 -19l-5 -10t-1 -8l-4 -11q-5 -8 -9 -15q-4 -15 -3 -20l-4 -12l-8 -8q-3 -9 -9.5 -17.5t-9.5 -12.5l-2 -8q-4 -2 -9.5 -12.5t-11.5 -13.5l-3 -7q-1 -1 -7 -9t-12 -8l-12 2q0 12 11.5 42.5t10.5 32.5q4 5 8 21l2 16
q12 26 12 54q1 3 1.5 18t0.5 18q0 5 -2 21.5t-4 19.5q-2 24 -5 37.5t-6 16.5l1 3l-4 16q-6 10 -9 15.5t-2 13.5q-3 12 -15 28t-14 23q-7 6 -13.5 10.5t-10.5 2.5l-6 2l-12 -5l-14 2l-8.5 -8.5t-7.5 -2.5q-2 -4 -12 -20t-14.5 -21t-3.5 -12l-3 -6q0 -4 -2.5 -12.5t-2.5 -10.5
q-6 -13 -11 -38.5t-5 -42.5q0 -4 -2 -12t-2 -13q-1 -7 -1 -13l-8 -5l-4 -13q0 -8 0.5 -13.5t3.5 -10.5q-2 -20 -5 -37.5t-8 -22.5q-2 -13 -8 -31.5t-11 -25.5q-1 -12 -1 -18q0 -4 2 -10q-3 -7 -16 -7q-10 0 -16.5 12t-12.5 31l-9 27l1 3q-2 7 -4 15l-30 71l1 3q-3 10 -5 21
l-4 12q-3 12 -5 25q-13 38 -21.5 72.5t-8.5 63.5l-1 20l-1 18l2 12q-2 4 1 11t1 10q2 9 2.5 16t0 16t3.5 16q0 5 3.5 14.5t3.5 12.5l5 20l-1 3q1 8 3 17.5t5 19.5v12l6 10l-2 6l4 9q-3 6 4 15q0 4 3 11t3 11q8 8 6 15q2 3 5 12t6 11q0 21 19.5 60t27.5 39q5 0 14 -7
q11 -4 12 -11q7 -12 15 -24l1 -12q0 -4 -4 -12t-2 -13q-2 -2 -2 -14q0 -6 -4 -7l5 -17l-1 -8q0 -11 3 -25t4.5 -18.5t4.5 -37t3 -40.5q2 -2 3 -8.5t3 -8.5l1 -31l3 -14q0 -13 0.5 -23t3.5 -26q8 6 21.5 15t30.5 17t29 8q8 0 17.5 -3t18.5 -6q2 -4 9.5 -5.5t8.5 -2.5l12 -2
l28 -14q0 -8 12 -8q10 -7 14 -11.5t7 -12.5l7 -3l11 -14q11 -12 17 -18q5 -16 7 -17q8 -32 11 -40.5t8 -18.5q0 -9 -1 -18l-2 -18q0 -13 5 -16z" />
    <glyph glyph-name="ograve" unicode="&#xf2;" horiz-adv-x="489" 
d="M499 166q-1 -3 -7 -23t-6 -22l-29 -25q-3 0 -8 -5t-8 -5q-3 -7 -12 -7q-11 -14 -16 -20h-7q-7 -4 -15 -8t-11 -11l-14 -8l-6 -2q-10 -15 -17 -15l-11 -11q-14 -3 -23 -20t-11 -34l-8 6v42l4 11q-2 11 10 52t19 51q4 21 16 56t14 44q1 8 3.5 17.5t5 19.5t2.5 17v49
q0 20 -1.5 42t-4.5 25q-4 23 -17.5 46.5t-29.5 23.5q-23 0 -59 -20t-48 -40l1 -4q0 -4 -2 -6.5t-3 -3.5q3 -35 6 -59t7 -26q-2 -13 3 -24q-2 -4 -3 -17.5t-1 -14.5q2 -3 2 -11q0 -6 2 -8v-30l2 -2v-15q0 -8 2 -11q1 -14 1 -21q-1 -5 -1 -15v-13l-5 -12q-5 -10 -11.5 -22
t-8.5 -26q-9 -9 -14 -23q-4 -1 -4 -10q0 -6 1 -11t2 -7l-10 -1q-8 8 -19 36t-20 52q-5 12 -5 19l-7 17q-3 12 -5 24l-4 7q1 6 -2 16t-3 14q-5 9 -7 24l-1 54q0 14 -5.5 60t-8.5 55q-2 9 -3 19l-2 2q0 9 -1 28.5t-1 29.5q2 4 2 11t2 11q1 8 2.5 12.5t0.5 8.5q4 12 6.5 43.5
t9.5 50.5l-1 5q0 3 2 10t1 11q16 62 50 132q5 8 11 16q1 8 13 14q14 -14 12 -23q6 -20 6 -32q0 -5 -2.5 -13.5t-3.5 -13.5l2 -2q-1 -10 -1 -15q0 -6 3 -11q-5 -10 -5 -13v-13v-27q5 -12 7.5 -20t2.5 -10l4 -12q2 -20 5.5 -37t7.5 -35q2 -2 1 -7.5t1 -7.5l-3 -38l9 7
q8 5 26.5 15t43.5 10q5 0 21.5 -4.5t20.5 -3.5l3 -2q4 3 12 -1t9 -4q6 -3 15.5 -6t32.5 -23t42 -37l8 -16q1 -3 18.5 -25.5t19.5 -31.5l-1 -4q0 -4 4 -10t2 -9l4 -31q-1 -4 1 -10.5t2 -8.5l2 -2q-1 -5 0.5 -23t2.5 -19l1 -10q0 -12 -6 -22.5t-6 -13.5z" />
    <glyph glyph-name="ocircumflex" unicode="&#xf4;" horiz-adv-x="620" 
d="M611 274l1 -9q-2 -1 -3 -5t-1 -8l-4 -14l-6 -14q-5 -6 -9 -11l-3 -14q-2 0 -2 -4.5t-2 -5.5l-1 -4l3 -2v-18q0 -9 -3 -13q1 -4 -1 -9t-3.5 -10.5t-3.5 -14.5q-7 -17 -18 -33.5l-21 -31.5l-18 -12q-10 -5 -18 -8.5t-16.5 -11t-19.5 -10.5q-8 -8 -16 -6q-6 -6 -15 -6
q-2 -2 -6 -2.5t-10 -1.5q-3 2 -13 2q-6 0 -8 3l-25 -1q-1 -2 -9 -2q-6 0 -8 -3h-10q-5 -1 -6 -3h-6q-17 2 -33 3l-5 3q-2 4 -9.5 5t-9.5 3q-6 2 -11.5 4t-10.5 5l-3 -1l-5 3q-5 -1 -13.5 1.5t-12.5 3.5t-9 4q-17 4 -50 31.5t-43 40t-11 17.5l-13 25q-3 6 -2 8q-3 7 -6 10
q-6 18 -12 26q-2 5 -3 11q-2 3 -2.5 5t-2.5 3q-4 13 -4 19q-1 2 -1 11q0 6 -2 9q2 17 4 35v6q2 11 3.5 17t2 13t2.5 9l-1 3l4 14t4.5 15.5t5.5 15t10 15.5l29 48q1 7 9.5 16.5t11 15t5.5 8.5q5 2 14 10t14 9q1 3 6 4t7 3h4q4 -1 17.5 5t30.5 14l54 12q6 5 15 5.5t15 1.5
q3 -5 10 -3q2 -2 4.5 -2h5.5l5 -3q6 2 30.5 -3.5t27.5 -5.5q4 -3 14.5 -6t16.5 -4q14 0 21 -11l14 -6q3 -4 6.5 -7t13.5 -9l2 -4q12 -7 24 -13l12 -12q4 -1 11.5 -9.5t6.5 -13.5q2 -4 3.5 -7.5t4.5 -4.5q5 0 8.5 -9t6.5 -17l-1 -3l15 -20q0 -1 3.5 -7.5t2.5 -10.5l5 -5
q2 -7 4 -13q6 -4 4 -10l6 -5q-1 -5 1 -11t2 -8l1 -8q-2 -6 -3 -11zM545 287l-2 3q2 17 -8 33q1 5 -1.5 9t-6.5 12t-9.5 15.5t-8.5 12.5q0 3 -5 10.5t-9.5 18t-8.5 20.5q-7 11 -11.5 16.5t-11.5 5.5q-1 1 -12 8t-19 6l-4 -3q-7 6 -9 6q-2 -3 -9 -3h-9q-9 -1 -12 -5l-3 1
q-7 -3 -14 -5q0 -6 -7.5 -11.5t-10.5 -9.5l-7 -2q-5 -4 -11.5 -8t-13.5 -5l-14.5 -14.5l-17.5 -17.5q-4 -2 -4 -13q-4 -2 -5 -10.5t-5 -9.5l-3 -6q0 -8 -4 -14.5t-6 -9t-3 -6t-3 -4.5v-43q-2 -3 -0.5 -9.5t0.5 -8.5l-2 -5v-11q2 -8 2 -24v-22q1 -1 1.5 -3.5t1.5 -6.5l5 -5
l-1 -3q7 -6 10 -10q0 -4 5.5 -10.5t3.5 -12.5q12 -4 11 -9q2 0 4 -4t7.5 -5.5t10 -5.5t10.5 -8q2 -6 10.5 -11.5t9.5 -6.5q6 -4 12 -6.5t12 -3.5q2 -2 3.5 -2.5l4.5 -1.5q8 1 17 2q1 2 5 2.5t5 2.5l17 3q8 1 11 5q12 5 15 9q15 7 29.5 26.5t31.5 43.5l2 6q4 3 8.5 15t9.5 23
q0 5 8 19t6 21q3 11 2 19v21z" />
    <glyph glyph-name="odieresis" unicode="&#xf6;" horiz-adv-x="603" 
d="M600 259q-3 -8 -3 -30q0 -13 -3 -18q3 -9 -3 -23t-6 -19q-2 -8 -4 -8q-2 -7 -3 -13q-6 -13 -5 -17q-4 -6 -9.5 -17t-4.5 -14q-4 -1 -2 -8q-3 -3 -9 -10.5t-12 -8.5q-9 -9 -18 -17t-12 -7l-4 -3q-5 -5 -10 -9q-4 0 -13.5 -8t-14.5 -8q-13 -7 -19 -13l-8 -6l-7 -1
q-8 0 -9 -6q-14 -3 -35.5 -4.5t-45.5 -1.5q-6 0 -28.5 2t-25.5 4l-3 -1q-5 0 -13.5 2.5t-11.5 2.5q-9 1 -12 5q-5 0 -11 3l-12 6l-27 13q-7 4 -12 6.5t-13.5 10t-13.5 9.5q-37 45 -74 91q-6 11 -10 17q0 2 -3 10.5t-4 18.5t-4 15l-8 59q2 9 5 18l2 8q4 12 4 18l8 22q2 1 2 8
q2 8 3.5 13.5l4.5 16.5q4 7 5 10q6 9 6 14l22 30q5 11 24 25.5t38 28.5l3 -1q5 6 13 15t15 7q7 2 10 6q3 1 22 9t22 7q2 3 7 3t6 2l4 -1q2 0 8 4.5t11 -0.5q15 0 32 2.5t26 6.5h41q4 -3 17 -3q12 0 24 -11.5t20 -9.5q0 -2 4 -3t5 -3l3 1q7 -4 15 -7l5 -9q8 -6 13 -7
q1 -3 6 -8t4 -10q7 -4 16.5 -19t12.5 -17q0 -8 5 -15q8 -8 11 -12q0 -4 8 -7q4 -4 8.5 -11.5t7.5 -11.5q2 -10 4 -19q0 -8 4 -11l3 -14q3 -1 3 -5t2 -4l1 -12l-3 -10l-1 -8q0 -9 6 -12q0 -16 -2 -18zM541 311q-3 11 -5 19.5t-8 12.5q-14 20 -27 41q-4 2 -6 9.5t-5 8.5
q1 6 -2.5 13t-3.5 9l-17 19q-6 -1 -12.5 6t-11.5 7q-2 3 -11.5 5.5t-13.5 8.5q-7 0 -17 5l-9 -2q-5 2 -12.5 -4t-12.5 -5q-4 -5 -4 -7q-6 -6 -10.5 -10t-15.5 -4q-4 0 -9 -7t-9 -11.5t-8.5 -9t-6.5 -14.5t-7 -12l-9 -12q-9 -1 -9 -23l-2 -11q-3 -2 -3 -11l-3 -7
q-5 -2 -5 -19l-4 -6t-2 -8q0 -15 6 -22q0 -11 -2 -16l5 -42q4 -5 6 -15.5t2 -18.5q2 0 2 -8q4 -6 6 -20q14 -17 29 -34l3 -9q3 -3 8 -12t9 -13q9 -2 16.5 -4t17.5 -2h10q4 -2 8 -3.5t16.5 -1.5t21.5 -2q3 1 20.5 6.5t22.5 11.5q12 3 23 17t21 32q6 9 8 14q4 4 3 8q2 7 5 10
q0 4 2 8t1 7q2 2 2.5 8.5t2.5 8.5l3 25q3 2 3 9q0 9 2 11l1 54q-5 3 -3 12z" />
    <glyph glyph-name="otilde" unicode="&#xf5;" horiz-adv-x="251" 
d="M258 679l-21 -13q-1 -5 -15 -16.5t-27.5 -15.5t-33.5 -4q-27 0 -53 15l-17 50l-2 26q0 31 22 44.5t24 16.5l8 4q20 -3 33 -6t23 -11l11 -6l1 -9q3 2 11 2q10 0 24.5 -18.5t4.5 -25.5q-1 -7 3.5 -15.5t4.5 -12.5zM252 77v-26l2 -17q-1 -4 -1 -13v-12q-2 -15 -9 -17v-23
l1 -12l-1 -14q-2 -4 -4 -15.5t-6 -18.5l-20 -35l-15 -10l-6 3q-3 -3 -3 -14q-1 -8 -12 -21l-14 -13l-6 -1q-2 -4 -7 -12t-7 -13q-2 -1 -6 -7.5t-7 -4.5q-17 -2 -31 -10q-1 -5 -7.5 -2.5t-7.5 -2.5l-13 -4l-10 6l-11 -5q-1 1 -9.5 1.5t-10.5 4.5q-11 0 -31.5 2.5t-26.5 2.5
q-2 2 -12 2q-8 2 -10 7l-10 6q-3 5 -13.5 22t-13.5 25l-1 27q2 14 3.5 27t-1.5 16v15l6 12q9 6 29.5 16.5t26.5 10.5q20 0 26 -5q5 -1 11 -3.5t9 -8.5l-2 -12q5 -6 5 -8q0 -3 -10.5 -11.5t-21.5 -17.5l-3 2q-3 0 -4 7t-3 7q-13 1 -17 -11t-8 -22t-6 -25l4 -6l1 -11l4 2
q4 -5 8.5 -10.5t9.5 -6.5q3 3 10 3t9 2q30 10 59 43t38 71l2 2v21.5t1 25.5q0 17 -2 21l5 63v27q0 11 -1 13q0 22 -1 24l6 58l-2 11q1 6 1 18q-1 18 -1 27t4 16q0 19 4 28l2 42l4 38q-1 5 1.5 24t5.5 41q2 10 5 20l3 12q1 9 7 23l-1 3q1 5 4.5 11.5t7.5 12.5q6 -2 18 -2
q9 0 13 -7l2 -11l7 -8l-1 -8l5 -12v-7l-2 -9q3 -5 4 -18t3 -20q7 0 7 -12l-2 -6l3 -16q2 -8 3.5 -15t-1.5 -9q0 -3 5 -11t3 -15l4 -13l-1 -5v-15l2 -5q-3 -7 4 -18.5t6 -17.5l3 -13q0 -14 4 -17l-1 -6q1 -18 1 -26t-2 -11l1 -7v-9q7 -17 12.5 -38.5t5.5 -39.5zM160 713
l-10 -25l10 -4q7 1 13.5 3.5t7.5 11.5z" />
    <glyph glyph-name="uacute" unicode="&#xfa;" horiz-adv-x="247" 
d="M225 676l-5 -23q-18 -10 -31 -23q-9 3 -18 -1.5t-14 -4.5q-4 0 -11.5 5t-11.5 7l-10 17q-15 4 -18 7t-15 23l-3 27l2 11q0 33 12 47.5t40 18.5l7 3q6 0 9 -6q16 -13 40 -17q3 -5 14.5 -7t13.5 -12l11 -18l6 -4l1 -25q-3 -4 -11 -10t-8 -15zM251 10l3 -13q-9 -7 -8 -16
l-2 -3l-4 -16q-1 -10 -1 -15q0 -4 5 -7q-1 -11 -1.5 -17t-2.5 -9q-3 -17 -10 -29l-4 -3l-4 -8l-6 -4v-4q-1 -8 -2 -17q-4 1 -6 -2t-5 -9q-3 0 -7 -6t-8 -5q-8 -13 -14 -23t-11.5 -13t-18 -6.5t-14.5 -7.5l-13 -8q-2 -3 -6 -2.5t-7 0.5q-4 1 -6 -5q-15 0 -16 -2l-13 -2
l-16 -1q-10 -2 -13 -2q-4 0 -9 4q-9 3 -17 5q-2 5 -10.5 7t-10.5 7q-5 3 -18.5 6t-20.5 6q-19 13 -29.5 36t-17.5 64v29l2 15q-1 6 3 13.5t4 8.5l7 11l8 5l2 5q4 0 19.5 3.5t23.5 2.5q6 0 14.5 -4t16.5 -9l4 -13l-5 -15q1 -3 -2.5 -8t-1.5 -9l-13 -11l-10 -1l-1 -19
q2 -11 -3 -15l4 -18q5 -4 8.5 -8t7.5 -13l12 -7l11 -1q23 -3 29 7l3 -1q12 0 14 8q5 0 8.5 8t6.5 10q2 9 6 17l8 16q-1 4 1.5 10.5t2.5 8.5l2 14l-4 11q2 4 0 9.5t-1 8.5l-2 16q-1 2 -1 15q0 5 -2 7l-8 56q4 16 4 39l2 2l-2 3q1 6 1 18q0 5 -0.5 12.5t-0.5 17.5q-1 1 -1 13
l-2 7l-1 19q4 6 0 18q2 14 4 24t2 24q0 13 -3 41t-3 43t5.5 38.5t10.5 33.5q-1 17 -1 25t2.5 19.5t2.5 13.5l15 47q12 14 20 14l7 -2q9 -9 18 -10q3 -3 16 -3l4 -1l2 -5l14 -13q5 -17 8 -33t3 -34l-4 -33q3 -12 7 -19t6 -11q3 -2 6 -16.5t6 -15.5l8 -22q3 -3 0.5 -9t-2.5 -8
l2 -5l1 -23l-3 -13q6 -13 8 -46t4 -39q-1 -3 -1 -10q0 -18 -3 -23q7 -12 7 -23q-1 -8 2 -38t5 -35q0 -9 -6 -25zM180 710l-9 2q-16 -4 -16 -20q0 -6 -1 -9l7 -7q8 4 14.5 8.5t9.5 11.5z" />
    <glyph glyph-name="ugrave" unicode="&#xf9;" horiz-adv-x="605" 
d="M589 210l1 -12l-16 -44l-5 -3q-11 -23 -21 -45q0 -10 -12 -25q-16 -17 -20 -22l-4 -3l-4 -8q-8 -3 -24.5 -28t-19.5 -30q-12 -7 -11 -17q-2 -7 -3 -12.5t-6 -3.5l-3 -1q-6 11 -9 34.5t-4 26.5q-1 7 0 12t2 11q0 7 -2 21t-2 21l-3 8q-12 -18 -23 -35l-8 -12l-6 -4
q0 -7 -22 -22.5t-25 -14.5q-6 -5 -23 -8t-27 -3t-29 4.5t-26 4.5l-8 4h-21l-43.5 25.5t-26 24.5t-24 37t-19 44.5t-12.5 49.5l1 3q-1 9 -2.5 18t-1.5 16q0 17 5 29q-4 30 -5.5 72.5t-1.5 58.5v18q0 13 2 19q-1 8 1 19.5t2 12.5l5 13q1 9 4.5 30.5t2.5 23.5l5 14l13 -4
l20 -14q3 -14 9 -14q20 -19 41 -38q13 -19 27 -38v-7l4 -10l-7 -6l3 -5q-4 -19 -4 -43q2 -5 2 -15q0 -5 -1 -11l-2 -12q-4 -6 -6.5 -10t-6.5 -3l-3 -3l2 -5l-2 -3q4 -18 -5 -19l-5 -10v-6l1 -4l-3 -9l3 -13l-3 -17l-5 -10l2 -15l-4 -17l7 -18q3 -6 11 -27t15 -29
q1 -5 24 -24.5t26 -27.5l27 -15q12 5 19.5 8.5t38 23t34.5 20.5q12 10 18.5 17.5t14.5 20.5l5 11q5 4 8.5 15.5t6.5 14.5l2 81l-2 8l2 18l-2 4l2 89q-2 4 -2 12q0 6 -2 9l2 110q1 13 3.5 28.5t5.5 21.5l21 -3l24 -18l-2 -6l50 -56q14 -27 32 -58t32 -72q0 -3 3.5 -17
t0.5 -21q2 -5 4 -22t3 -21q0 -8 -4.5 -21t-5.5 -17z" />
    <glyph glyph-name="ucircumflex" unicode="&#xfb;" horiz-adv-x="597" 
d="M588 310q-1 -6 -2 -21.5t-2 -21.5q4 -14 4 -22q-4 -14 -4 -22q-2 -2 -2 -17l-3 -10v-33q-2 -4 -2 -12t-2 -11q0 -4 -3.5 -7.5t-2.5 -6.5q-5 -8 -9 -16h-10q-3 -15 -12 -11q-4 -5 -8.5 -11.5t-3.5 -15.5q-11 -17 -16.5 -26.5t-5.5 -11.5l-9 -6q-4 -14 -4 -21l-4 -16
q-2 -8 -4 -17q0 -16 -12 -16q-8 0 -9 5v4q-2 9 -3.5 17.5t-1.5 32.5v19q0 11 -3 22.5t-10 10.5q-3 -14 -11 -11l-1 -7q-1 -1 -8.5 -10t-13.5 -10l-33 -25q-2 -1 -9.5 -6t-11.5 -2l-8 -5l-9 2q-12 -6 -22 -6q-6 0 -10 1l-5 -2q-3 1 -15.5 2.5t-17.5 7.5h-5q-11 0 -15 3
q-18 6 -36 13q-57 42 -88 84t-43 104v4l-2 20l-3 40l3 72q2 4 2 14v10q1 2 1 16t5 19q3 22 6 41.5t6 24.5l10 52l8 1q0 7 4.5 6.5t6.5 -0.5l18 5q20 -14 26 -44.5t7 -31.5q-1 -5 -1 -16q0 -21 -1 -24q4 -13 4 -33q0 -11 -1.5 -28.5t-2.5 -37.5q0 -10 0.5 -14t2.5 -10t-1 -9
q1 -4 0 -12t0 -12q-1 -4 1 -24t5 -25l2 -26q2 -3 1.5 -9.5t-0.5 -11.5l-1 -3q3 -2 6 -11t8 -11.5t11 -9.5t15.5 -25t27.5 -32.5t54 -14.5q27 0 58.5 16.5t42.5 34t17 22.5q-9 52 -17 105q0 28 7 80t7 79q0 34 10 60q-1 5 1.5 10.5t2.5 6.5l12 28q1 6 3 11t9 18l-1 8l3 24
q8 8 12 8q19 0 30 -7q8 -9 17 -18l7 -8q3 -12 7 -23t9 -22q6 -8 6 -17l3 -2l-1 -14q5 -10 9 -20.5t3 -14.5l14 -43q3 -10 7 -20l1 -9q1 -11 2 -21q-7 -9 -3 -14z" />
    <glyph glyph-name="udieresis" unicode="&#xfc;" horiz-adv-x="474" 
d="M505 6l-4 -3q-58 41 -104 75.5t-63 62.5q-6 4 -18.5 15.5t-13.5 16.5l-13 8q-15 15 -29 31q-7 -11 -7 -29q0 -8 -10 -15v-20l-4 -10v-20q-5 -9 -5 -20q0 -8 -7 -9q-2 -8 -3 -14.5t-5 -9.5l-2 -12q-4 -2 -6 1t-5 0l-4 -11q-1 -1 -3 -2t-3 -3q0 -11 -7 -12q-4 -7 -13 -12
q-8 -9 -13 -14l-3 -1q-9 0 -19 12t-13 22l1 5l-13 38q-2 1 -3.5 8t-5.5 9l-3 11l-6 4l-10 24q0 12 3 35.5t2 33.5q-1 6 -1 18q0 9 -2 13t1.5 6.5t3.5 3.5l-2 2q-4 1 -5 6.5t-2 12.5q0 6 -3.5 19t-4.5 17l2 13q-4 13 -5.5 44.5t-1.5 72.5v12q0 23 0.5 46t6.5 46l3 16v9
q4 1 4 7.5t3 9.5q2 11 3.5 23.5t1.5 14.5q5 4 4 9.5t2.5 21t7.5 30.5l6 17q3 2 7 11.5t8 20.5l-4 11q3 2 3 8t3.5 10.5t3.5 16.5q6 4 12 9q5 -3 10 -5.5t10 -3.5l22 -24q1 -3 6.5 -9.5t6.5 -11.5l2 -4q11 -8 7 -15q6 -8 14 -17t8 -15q4 -4 10 -16l7 -14v-12q0 -6 2 -9v-69
l-4 -4l4 -9l-2 -14l2 -2l3 -14q-1 -4 -1 -13q0 -6 -2 -9l-1 -8l4 -9l-2 -7q2 -4 0.5 -16.5t-1.5 -17.5q0 -7 3 -12q0 -22 1 -24q-1 -5 -1 -13q0 -2 2 -10l-2 -5q5 -11 -2 -12l-2 -8q7 0 10 10q11 8 28 24t31 30q5 9 25 29.5t25 27.5q4 2 37 36t43 41l6 -2q-3 -18 -5 -23
l2 -18q-1 -5 -2 -10.5t2 -8.5q-5 -15 -7 -22.5t-12 -14.5l-9 -32q-4 -9 -7 -17q-4 -2 -11 -9t-11 -10q-11 -4 -14 -10l-8 -5q-4 0 -10 -6t-14 -4l-1 -9l-11 -7q-1 -9 -17 -32.5t-16 -27.5l1 -3q7 -5 13.5 -12t11.5 -14v-6q7 -3 24 -26t17 -28l13 -10l-2 -7l11 -9q10 -3 9 -8
q6 -5 10 -8t5 -9q6 -2 9 -5.5t9 -12.5t17.5 -24.5t12.5 -22.5q6 -7 8 -10.5t4 -10.5q4 -1 7.5 -8.5t6.5 -8.5q0 -2 7.5 -8.5t7.5 -14.5z" />
    <glyph glyph-name="dagger" unicode="&#x2020;" horiz-adv-x="505" 
d="M526 4l-8 -1q-9 4 -17.5 11t-11.5 12q-10 5 -20.5 12t-20.5 14l-18 18q-6 4 -13 8.5t-9 12.5q-5 -1 -8 7l-4 3l-5 9q-5 1 -7.5 7.5t-10 11t-12.5 11.5q-8 6 -15 12q-15 19 -46 50t-52 46l-3 6l-13 2q2 -3 2 -14q0 -6 2 -8l-5 -14l1 -12l-3 -16l-7 -7l3 -5l-13 -60l-7 -3
q0 -7 -8.5 -18t-9.5 -14l-4 -3q-3 -9 -5 -18q-6 -12 -7 -19t0 -14l-10 -13q1 -7 -3 -15q-4 -2 -11 -3t-10 -2q-16 25 -16 60q0 4 -2.5 28.5t-4.5 36.5l-2 8l1 3q-2 7 -3 14q-5 13 -4 23q2 6 2 17t1 14l2 4q-2 10 -15.5 38.5t-13.5 48.5l-1 7q0 9 -2 32t-2 24l-1 3
q0 33 0.5 63t4.5 69l2 3q0 18 0.5 35t5.5 21l11 54q1 6 2.5 11.5t5.5 11.5q1 11 3 22q10 30 17 50t19 38q2 11 10.5 23.5t18.5 17.5l9 -2l6 -6l5 1l9 -8l10 -26v-14q0 -12 -5 -17q3 -9 6.5 -25.5t4.5 -19.5l-2 -7l2 -2v-12q0 -13 3.5 -22t10 -34t7.5 -29l-1 -5
q0 -2 3.5 -8.5t2.5 -10.5q4 -4 5 -14t4 -13q0 -10 -0.5 -20.5t-4.5 -19.5l3 -13q-1 -17 -1 -33q-3 -3 -3 -10q0 -6 -2 -8q2 -6 2 -13q0 -10 -3 -16l7 -12q12 5 30.5 21t22.5 22q17 11 33 22.5t19 15.5l23 17q6 0 20 11.5t17 14.5l4 1l22 21q10 7 16 10q2 3 9 8t9 9l32 15
l2 -7l-3 -6l-15 -22q3 -6 5 -20q-5 -12 -4 -16l-5 -9q-4 -3 -10 -8.5t-9 -9.5l-12 -3q-4 -6 -12 -11t-15 -9l-13 -1l-5 -3q-8 -8 -11 -15q-4 -2 -6.5 -8t-5.5 -7q-4 -5 -14.5 -12t-14.5 -13l-20 -12q-2 -3 -17 -13t-19 -10l3 -9q5 -3 11 -6.5t10 -3.5l7 -7q7 -2 13 -12
q1 -5 5 -9l10 -10l13 -20l5 -2q3 -10 9 -9l8 -13l2 2l5 -10v-4q0 -3 8.5 -10.5t11.5 -7.5q0 -9 6 -7q5 -8 20 -23t18 -22q7 -7 14 -13.5t9 -7.5l8 -10l-1 -21l4 -12l-1 -6q5 -11 9 -21t3 -15q6 -10 8 -21l6 -7z" />
    <glyph glyph-name="degree" unicode="&#xb0;" horiz-adv-x="245" 
d="M243 592q3 -6 -4 -8v-9l-7 -10q-2 -10 0.5 -25.5t4.5 -28.5q-1 -1 -4 -8t-8 -8q2 -20 5 -39l1 -17q-3 -14 -6 -27q-6 -22 -11 -42t-4 -23l-4 -13l1 -23q3 -3 3 -12q-1 -16 -2 -31q1 -7 -2 -15t-3 -13l-2 -8l1 -15q-14 -22 -26.5 -75.5t-25.5 -147.5l2 -19l-1 -8l-7 2
q-5 9 -14 36l-16 48v4q-2 10 -3 20l-3 30l-2 9q-6 24 -11 48q-3 8 -3.5 25.5t-2.5 25.5q-2 7 -3 15l-3 10l-3 18l-5 23l-2 20q-3 12 -4.5 23t-1.5 24v17q0 7 -2 23.5t-2 17.5l-2 2q0 27 2.5 71t2.5 51v22l6 72q0 12 3 17v4l3 13l2 9q2 2 4 9t6.5 20t9.5 28.5t11 29.5
q0 4 2.5 11t3 9.5t7.5 4.5q8 0 18 -7t20 -13q2 0 7 -5t8 -5l3 -6l9 -7l6 -17l-1 -3q0 -4 2.5 -11.5t2.5 -8.5q6 -16 10 -23t16 -25q8 -5 7 -12l9 -9q0 -6 1 -10t3 -7z" />
    <glyph glyph-name="cent" unicode="&#xa2;" horiz-adv-x="489" 
d="M501 203l-30 -32q-15 -21 -30 -41l-10 -6l-3 -7l-14 -5q-3 -6 -10 -9t-13 -6l-9 -1q-8 -12 -6 -20l-5 -10q0 -17 5 -21q-3 -11 -2 -20q-3 -2 -2 -9t-0.5 -12t-4.5 -14.5t-3 -12.5l-13 -5q1 -5 -5 -10.5t-6 -9.5q-5 -8 -9.5 -31t-15.5 -32l-11 -3q-4 2 -8.5 10.5
t-7.5 15.5q0 10 -8 31.5t-14 36.5t-5 21q-13 13 -20 30q1 13 -0.5 26.5t-2.5 31.5q-50 20 -65 26.5t-40 24.5q-60 65 -77 155l2 11q0 6 -3 19t-3 20q0 20 6.5 44.5t13.5 47.5l11 14q1 8 9 20q12 14 18 22.5t12 12.5l1 4q4 6 15.5 14.5t14.5 14.5q9 3 15 14q4 2 18 17t37 15
q10 -3 21 -5t22 -3l4 4q-4 6 -4 22v14q1 2 1 18q0 14 -0.5 31t-1.5 37l3 43q2 4 2.5 10.5t1.5 12.5l14 12q14 0 25.5 -1.5t18 -4.5t14 -9.5t7.5 -12.5q18 -14 24.5 -42t15.5 -42l1 -19q1 -7 -10 -20l1 -8q-4 -7 -7 -12t-1 -10l-1 -17l4 -13l12 1l14 -5q6 2 12.5 -0.5
t13.5 -4.5q3 -5 14.5 -9t13.5 -9l-1 -7v-4l22 -20l2 -15q0 -19 -19 -23l-17 3q-1 4 -9.5 7t-9.5 15l-36 20q-4 -1 -11 0t-14 1q-5 0 -10 -2t-12 -5q-5 -4 -9 -7t-9 -2q-5 -8 -9 -12l-9 -9q-11 0 -19 -11q-8 -14 -11 -19l-9 -2l-3 -9l-15 -12l-2 -8l-16 -16l1 -9
q0 -27 -16 -27v-11q-1 -5 1 -12t4 -13l-1 -6q0 -8 2.5 -20.5t2.5 -15.5q0 -5 2 -12t4.5 -15t15.5 -26q4 -2 6 -10.5t6 -10.5l4 -15q13 -7 12 -16q3 -7 6 -12t9 -5q1 -6 9.5 -9.5t10.5 -6.5q13 -5 24 -6t30 -1l20 2q12 8 24 17l4 -1q5 9 12 9q14 12 28 25q9 5 13.5 16t9.5 15
l9 20l3 1l13 -9q-3 -8 3 -19z" />
    <glyph glyph-name="sterling" unicode="&#xa3;" horiz-adv-x="494" 
d="M519 46v-5q0 -4 -5 -11t-5 -15q-3 -8 -5 -16q-4 -6 -12 -3t-12 0l-8 2q-10 -6 -17 -6q-5 3 -14.5 4.5t-16.5 1.5q-7 2 -9 4q-7 -1 -19 1.5t-15 2.5q-11 3 -21 6l-24 3q-12 -1 -24.5 -3t-14.5 -4q-10 4 -15 4l-7 -4q-5 -1 -15 -2t-18 -1h-12l-4 -3h-14l-23 -2q-4 1 -12 1
t-25 -3.5t-24 -3.5l-13 1q-3 3 -12 3h-11q-5 -6 -12 1l-3 12q3 2 3 10q0 6 3 8q5 10 4 15q26 44 34 60.5t15 77.5q2 1 2 7t4 8l-1 5q3 9 7.5 19.5t4.5 18.5q-3 25 -5 50q-3 6 -3 12v13q0 6 -3 11l-2 12q-5 -1 -15 -1q-7 0 -10 -2l-5 -1q-13 4 -20 4q-3 3 -13 3h-13l-9 -3
q-13 1 -26 3q-5 7 -9 14q0 12 18 20l5 8l56 30q12 4 19 6.5t10 6.5q-2 2 -3.5 10t-2.5 15q2 6 -1 17t-3 16l2 8q0 16 0.5 32t4.5 22l-1 5q0 3 3 10t2 11l10 26q0 7 7 20.5t8 17.5q6 3 11.5 15t9.5 16q17 33 25.5 44t19.5 19q1 3 12 3l5 3q12 -2 17 3l47 -2q12 0 33 4.5
t24 4.5l11 -1l3 -3l4 1q13 -6 20 -7q1 -5 28.5 -16.5t28.5 -13.5q4 0 9.5 -3.5t13.5 -6t11 -15.5l-6 -12v-10l3 -10q0 -19 -11 -36t-30 -17q-10 0 -20 15v18q0 8 4 15q1 9 1 13q0 7 -18 10q-1 2 -7.5 3t-7.5 3l-11 1l-9 -3l-8 2q-1 -2 -7.5 0t-7.5 -4.5t-14 -17.5l1 -4
q0 -4 -3 -7.5t-4 -4.5l1 -10q0 -9 -6.5 -19.5t-12.5 -19.5q2 -19 3 -29t4 -13q-2 -6 -3 -13t-1 -13q-3 -2 -3 -12q-1 -6 -3 -7q1 -3 1 -10q0 -5 -1 -17t-1 -17l-6 -19q3 -2 14 -2q7 -2 8 -4q16 -4 42.5 -6t46.5 -2h54q6 -4 16.5 -7t15.5 -5q8 0 14 -4l1 -9q0 -9 -5 -10
q-8 -13 -19 -12l-2 2q-2 -3 -6 -6.5t-7 0.5h-14q-8 0 -11 -3q-13 -4 -20.5 -7.5t-8.5 -6.5q-7 -1 -18 -1.5t-21 -0.5q-16 0 -18 2q-14 1 -21 1t-11 -5q2 -9 5 -21t3 -18q0 -11 -5 -12q0 -13 -8 -15l-7 -11l-1 -31q-9 -6 -18 -11q-3 -4 -3 -22q0 -9 -7 -13l-4 -11
q-17 -16 -27.5 -26.5t-10.5 -12.5q-2 -10 -10 -12q2 -3 -0.5 -8t-2.5 -7l2 -4q6 2 23.5 3t24.5 1q16 0 35 -8l5 1q17 -8 26 -8q1 -2 6.5 -3t6.5 -3q5 0 11 -2.5t7 -2.5l16 -5q8 1 13 -6t10 -8.5t17 -1.5q10 0 20.5 1t21.5 2h21q1 -6 11.5 -7t10.5 -9q0 -4 -7 -13z" />
    <glyph glyph-name="section" unicode="&#xa7;" horiz-adv-x="254" 
d="M248 446l2 -5q-1 -12 -2.5 -22.5t-5.5 -14.5q-2 -7 -3 -23.5t-1 -23.5q-7 -8 -15 -20.5t-7 -18.5l-2 -15q1 -5 3 -20t2 -22q-2 -12 -4 -23l-9 -34l1 -10q-2 -2 -3 -16.5t-12 -23.5q-8 -3 -7 -9l-4 -2l1 -10l-3 -1l-7 -7q-1 -4 -3 -7.5t-5 -1.5q-2 -1 -6 -26.5t-8 -30.5
q-4 -1 -5 -7t-2 -7q-3 -9 -5.5 -15.5t-4.5 -18t-3 -15.5l3 -8l-1 -5l-4 -7l-9 7q1 9 -4 14l-5 16l1 3q-2 6 -3 12l-3 11l-2 16l-3 12l-9 49l1 6q-5 15 -6 20v4q-4 16 -7 33l-4 13q-2 11 -2 17q-2 11 -3 23l-2 17q0 12 -3 38t-3 40q0 19 3.5 80t3.5 86q-1 4 -1 13v12
q-2 1 -2 4v8q0 17 2.5 45.5t2.5 33.5q2 8 4 17v4q4 9 4 14l6 15q0 5 5 13.5t6 12.5q7 7 6 13q2 3 12 26t20 47l5 3q7 0 7 -8q2 -2 5 -6.5t6 -10.5l6 -4q1 -4 5.5 -7.5t4.5 -7.5q4 -10 8 -13q3 -7 3 -12v-11l2 -7q0 -23 3.5 -45.5t9 -32.5t8 -14t1.5 -7q2 -3 4 -15t7 -15
l4 -11q4 -6 8.5 -18t6.5 -25q-1 -5 2.5 -14t3.5 -18h5l1 -12z" />
    <glyph glyph-name="bullet" unicode="&#x2022;" horiz-adv-x="566" 
d="M552 289l-4 -9q0 -8 -2 -13.5t-3 -8.5l-7 -5q-6 -14 -5 -19l-7 -16q-12 0 -15.5 -3.5t-1.5 -16.5l-4 1l-11 -8v-15l4 -9l-1 -4q-10 -4 -21 -15.5t-42 -14.5q-6 -9 -17 -13q-25 -5 -36 -8q-3 3 -12.5 3.5t-13.5 4.5l-13 -3l-15 7h-4q-6 0 -16 4.5t-14 4.5q-4 4 -23 8
t-24 9q-5 1 -12.5 5.5t-12.5 3.5q-7 2 -13 7t-9 8l-4 1q-17 14 -33 33t-23 35q-4 3 -7 11t-5 10q-4 17 -8 35t-4 36l1 29q3 2 3 9.5t4 9.5q1 8 4 15t8 17q7 2 7 15q0 3 4 8t5 9q4 4 21 29t35 31q11 12 54.5 23t88.5 23h12q7 0 11 -4q9 -3 15 -7t7 -12q5 -3 16.5 -5t17.5 -5
l16 -6q3 -6 14 -10t14 -9q9 -2 23.5 -18t16.5 -16q0 -4 6.5 -13.5t6.5 -14.5q7 -6 7 -20v-12q0 -10 9.5 -22t6.5 -20l8 -22l1 -21q0 -6 -2.5 -14.5t-1.5 -12.5z" />
    <glyph glyph-name="paragraph" unicode="&#xb6;" horiz-adv-x="935" 
d="M919 246q3 -11 -3 -13q-8 -11 -11 -12l-1 -5q-9 -6 -18 -12.5t-8 -10.5q-8 -2 -7 -8q-3 -1 -5 -6.5t-6 -4.5l-1 -9h-5l-4 -9l-6 2q-3 -1 -3 -10l-3 -7l-3 -7q-7 -5 -14 -9l-2 -7q-1 -1 -9 -3t-8 -6l-2 -4l5 -4l-8 -9q-3 0 -4 -6q0 -3 -3 -3.5t-8 -0.5l-4 -4l-7 2
q-6 -1 -4 -11l-12 -14l-24 -25q-2 -7 -3 -13t-4 -9q-5 -9 -13 -9q-2 7 -2.5 20.5t-0.5 19.5q1 7 3 8q0 15 2 20q0 4 2.5 11.5t2.5 11.5q3 1 2.5 4t-0.5 7l2 5l6 15q3 4 4 16.5t1 13.5l2 11v20v22q0 39 -2 45q0 13 -4 39t-4 39v21q0 5 -1 11t0 11.5t-1.5 20t-2.5 17.5l-2 8
q1 3 -1.5 8.5t-1.5 7.5l-9 21q-3 8 -3 10l-4 8q-4 6 -17 19t-16 12q-9 -6 -9 -10q-10 -8 -30 -30t-29 -31l-10 -6l-28 -34q0 -4 5 -10.5t3 -11.5q5 -8 11 -16l5 -8l4 -22q5 -8 4 -12q4 -9 4 -23l-1 -26l-4 -8l1 -4q-2 -8 -4 -15l-1 -5l1 -2q0 -3 -10 -11l-3 -8
q-2 -2 -9.5 -2t-8.5 -4q-9 -6 -14 -1q-1 -2 -7 -5t-8 -6l-6 -4q-3 -7 -5 -13q-4 -1 -6 -7.5t-6 -7.5l-13 -13q-2 -11 -3 -21q-3 -1 -7.5 -9t-6.5 -9l-6 -13q-4 -2 -7.5 -16t-5.5 -16q-1 -5 -4.5 -10t-9.5 -10q-1 -8 -1.5 -13t-4.5 -8q-17 2 -17 9v43q2 2 3.5 15t1.5 25l2 5
q-1 4 1 13t1 13l3 11q0 8 -4 29.5t-4 29.5q-2 4 -2 14q0 7 -2 10v5q0 4 -2 13t-2 13q0 10 -3 13l-3 13l1 7q0 7 -2 21t-2 21l-4 18v5q1 6 -1 15t-2 15t-4 10q0 3 -2.5 9t-2.5 9q-8 14 -7.5 23.5t-3.5 13.5q0 7 -6 19l-3 11q-8 -2 -19 -12t-16 -10q-3 -3 -15.5 -9.5
t-16.5 -14.5q-6 -4 -9.5 -6t-10.5 -7t-8 -9q-8 -5 -7 -14q-9 -5 -11 -20l1 -6q3 -7 1 -11q2 -3 2 -16q5 -10 5 -14v-11l-3 -13q-4 -4 -5 -11t-2 -10.5t-2.5 -8.5t-2.5 -11l1 -4q-2 -8 -3 -16q-2 -2 -2 -5.5t-1 -8t-3 -5.5l-6 -8q-1 -3 1 -7.5t2.5 -6t1.5 -8.5v-11l-7 -11
q5 -6 5 -18v-4q-4 -1 -5.5 -6.5t-4.5 -7.5l-4 -8v-4q0 -5 -3 -11t-4 -9q-12 -6 -12 -12q0 -10 4 -13v-8q1 -5 3 -6v-30q3 -3 4 -11t3 -11q0 -17 -6.5 -20t-11.5 -5l-9 -4q-4 2 -11 13.5t-9 17.5l1 3q-2 5 -3.5 9t-4.5 14.5t-5 13.5l1 4q-2 7 -3 14q-2 0 -3 8l-2 5l-28 62
q-5 1 -5 10q-3 8 -3 10l-4 8q-2 5 -3 11q-5 12 -11 23.5t-8.5 21.5t-3.5 11q-2 7 -3 14l-5 26v73q0 21 1 39t4 28q0 5 2 12t1 10q2 1 2 7l2 3l3 12q2 5 5 11q-1 4 2 8.5t3 7.5l12 13l31 -1q6 -2 13 -3q4 -5 7.5 -7.5l10.5 -7.5l38 -37l14 -26l3 1q5 14 42.5 46.5t54.5 38.5
q10 12 25 12q15 -4 22 -4q5 -3 17 -5q8 -5 13.5 -7.5t9.5 -6t8 -2.5q2 -4 12.5 -8.5t12.5 -11.5q14 -12 28 -23q5 0 7 -7t7.5 -9t15.5 -10t11 -12l3 -1q3 6 22.5 28.5t26.5 28.5l71 62q12 5 25 10q10 0 24 -8t21 -8q1 -2 6.5 -3t6.5 -5q12 -7 18 -10q9 -10 32.5 -24.5
t33.5 -23.5l8 -3q2 -4 10 -7.5t11 -13.5q5 -2 11 -3q0 -1 8.5 -10.5t17 -19.5t12.5 -18q6 -18 10.5 -29t7.5 -12l-1 -3l8.5 -17t2.5 -12q4 -14 0 -19q2 -1 2 -5.5t2 -5.5q0 -20 -1 -22l2 -14z" />
    </font>
</defs>
</svg>
